img image001 image001 image001 image001 image001 image001 image001 image001 image001 image001 image001 image001 image001 image001 image001

Planets Sun Sun Sun
Статистика раздачи
Автор: PriZraK | Размер: 20.59 ГБ | Добавлен: 15 фев 2014
Раздают: 6    Качают: 17
Скачать торрент
Скачать торрент
Описание торрента

СообщениеДобавлено: 15 фев 2014 





Баскетбол Куроко / Kuroko no Basuke TV









Год выпуска:2012-2014
Выпущено: Япония,
Жанр: Комедия, сёнэн, спорт
Снято по манге: Kuroko no Basket
Автор оригинала: Кавахара Рэки
Продолжительность: 00:25:00
Перевод: Dreamers Team
Сезон:1- 2
Серии:1-39
Количество серий в сезоне: 50
Озвучка:Любительская, Двухголосная, 1Сезон[JAM & Eladiel], _[JAM & NikaLenina]
Субтитры: Русские Вшитые Хардсаб от Dreamers Team




Рейтинг на World Art




Режиссер: Тада Сюнсукэ





Повествование идет о приключениях баскетбольной команды, старающейся попасть на национальный чемпионат. По сюжету, в средней школе Тэйко была сформирована баскетбольная команда, одерживавшая победы на всех соревнованиях. Члены этой команды были прозваны «Поколением чудес», однако, затем они разошлись по разным школам. Один из них, Тэцуя Куроко, решает возродить команду в новой школе Сэйрин, чем и занимается вместе с талантливым Тайга Кагами, ранее игравшим в США.




Тип видео: Хардсаб
Качество : HDTVRip-AVC 720р
Формат: MPEG-4
Видео кодек: H264
Видео: 2618-2626Кбит/сек,1280х720(16.9),в 25.000кадр/сек,AVC(Baseline@L3.1)(1Ref Frames)
Аудио кодек: AAC
Аудио Russian Dolby Digital 5.1:384-288Кбит/сек,44.1КГц,6каналов,AAC,(Version4)(LC)





Русская звуковая дорожка сделана путем наложения чистого голоса озвучивателей на центральный канал оригинальной дорожки. Качество идентично английской звуковой дорожке.






1Сезон
Серия 1: «Я Куроко»
Серия 2: «Я серьёзен»
Серия 3: «Это даже лучше, если я проиграю»
Серия 4: «Позаботьтесь о контратаке!»
Серия 5: «Твой баскетбол»
Серия 6: «Хочу прояснить пару вещей»
Серия 7: «Ожидается что-то интересное»
Серия 8: «Вот что я думаю об этом»
Серия 9: «Победить»
Серия 10: «Не отдам»
Серия 11: «Это ещё не конец»
Серия 12: «Что значит «победа»?»
Серия 13: «Я верил в тебя»
Серия 14: «Ты так похож на него»
Серия 15: «Не смеши меня»
Серия 16: «Поехали!»
Серия 17: «Вы все такие нелепые»
Серия 18: «Нет!!»
Серия 19: «Новый вызов»
Серия 20: «Я не хочу»
Серия 21: «Приступим»
Серия 22: «Я выиграю, даже если умру»
Серия 23: «Я не повзрослел!»
Серия 24: «Не заблуждайся»
Серия 25: «Наш баскетбол»

2Сезон
Серия 26: «Не ожидал встретить тебя здесь»
Серия 27: «На Зимнем кубке»
[color=Blue] Серия 26: « Никогда бы не подумал, что мы встретимся здесь»
Серия 27: « Зимнем кубке»
Серия 28: «Старт!!!»
Серия 29: «Есть только один ответ.»
Серия 30: «Я ждал этого.»
Серия 31: «Я давным-давно тебя превзошёл.»
Серия 32: «Хватит»
Серия 33: «Мы баскетбольная команда старшей школы Сейрин»
Серия 34: «Я тебя раздавлю!»
Серия 35: «Доверие»
Серия 36: «Не смеши меня»
Серия 37: «Жду не дождусь»
Серия 38: «В этот раз точно»
Серия 39: «Тщетная попытка»







General
Полное имя : D:У Ж А С ЫПятая стражаPyataya_Strazha_2013_RUS[TV3_Russia]_DD5.1_x264_Nikolai.Baranov_SATRip-AVCPyataya_Strazha_E01_RUS[TV3_Russia]_DD5.1_x264_Nikolai.Baranov_SATRip-AVC.mp4
Формат : MPEG-4
Профиль формата : Base Media
Идентификатор кодека : isom
Размер файла : 872 MiB
Продолжительность : 47mn 48s
Режим общего битрейта : Variable
Общий поток : 2 549 Kbps
Дата кодирования : UTC 2013-02-18 16:50:07
Дата пометки : UTC 2013-02-18 16:50:07
Программа кодирования : Lavf51.12.1
Video
Идентификатор : 1
Формат : AVC
Формат/Информация : Advanced Video Codec
Профиль формата : Baseline@L3.0
Параметр CABAC формата : No
Параметр ReFrames формата : 1 frame
Параметр GOP формата : M=1, N=12
Идентификатор кодека : avc1
Идентификатор кодека/Информация : Advanced Video Coding
Продолжительность : 47mn 48s
Вид битрейта : Variable
Битрейт : 2 089 Kbps
Максимальный битрейт : 3 000 Kbps
Ширина : 720 pixels
Высота : 480 pixels
Соотношение сторон : 3:2
Режим частоты кадров : Constant
Частота кадров : 25.000 fps
Частота кадров в оригинале : 24.000 fps
Стандарт вещания : NTSC
Цветовое пространство : YUV
Субдискретизация насыщенности : 4:2:0
Битовая глубина : 8 bits
Тип развёртки : Progressive
Бит/(Пиксели*Кадры) : 0.242
Размер потока : 714 MiB (82%)
Дата кодирования : UTC 2013-02-18 16:50:07
Дата пометки : UTC 2013-02-18 16:50:07
Audio
Идентификатор : 2
Формат : AAC
Формат/Информация : Advanced Audio Codec
Профиль формата : LC
Идентификатор кодека : 40
Продолжительность : 47mn 48s
Вид битрейта : Variable
Битрейт : 456 Kbps
Каналы : 6 channels
Расположение каналов : Front: L C R, Side: L R, LFE
Частота : 44.1 KHz
Метод сжатия : Lossy
Размер потока : 156 MiB (18%)
Дата кодирования : UTC 2013-02-18 16:50:07
Дата пометки : UTC 2013-02-18 16:50:07






General
Полное имя : D:А Н И М ЕKuroko_no_Basuke_S01_-_S02_rus[JAM_&_Eladiel]_DD5.1_x264_Nikolai.Baranov_HDTVRip.AVC_(720p)Kuroko_no_Basuke_2013_е026_rus[JAM_&_Nika_Lenina]_DD5.1_x264_Nikolai.Baranov_HDTVRip.AVC_(720p).mp4
Формат : MPEG-4
Профиль формата : Base Media
Идентификатор кодека : isom
Размер файла : 510 MiB
Продолжительность : 24mn 29s
Режим общего битрейта : Variable
Общий поток : 2 912 Kbps
Дата кодирования : UTC 2013-10-30 05:42:08
Дата пометки : UTC 2013-10-30 05:42:08
Программа кодирования : Lavf51.12.1
Video
Идентификатор : 1
Формат : AVC
Формат/Информация : Advanced Video Codec
Профиль формата : Baseline@L3.1
Параметр CABAC формата : No
Параметр ReFrames формата : 1 frame
Параметр GOP формата : M=1, N=12
Идентификатор кодека : avc1
Идентификатор кодека/Информация : Advanced Video Coding
Продолжительность : 24mn 29s
Вид битрейта : Variable
Битрейт : 2 626 Kbps
Максимальный битрейт : 3 750 Kbps
Ширина : 1 280 pixels
Высота : 720 pixels
Соотношение сторон : 16:9
Режим частоты кадров : Constant
Частота кадров : 25.000 fps
Частота кадров в оригинале : 24.000 fps
Цветовое пространство : YUV
Субдискретизация насыщенности : 4:2:0
Битовая глубина : 8 bits
Тип развёртки : Progressive
Бит/(Пиксели*Кадры) : 0.114
Размер потока : 460 MiB (90%)
Дата кодирования : UTC 2013-10-30 05:42:08
Дата пометки : UTC 2013-10-30 05:42:08
Audio
Идентификатор : 2
Формат : AAC
Формат/Информация : Advanced Audio Codec
Профиль формата : LC
Идентификатор кодека : 40
Продолжительность : 24mn 29s
Вид битрейта : Variable
Битрейт : 288 Kbps
Каналы : 6 channels
Расположение каналов : Front: L C R, Side: L R, LFE
Частота : 44.1 KHz
Метод сжатия : Lossy
Размер потока : 49.4 MiB (10%)
Дата кодирования : UTC 2013-10-30 05:42:08
Дата пометки : UTC 2013-10-30 05:42:08



















1Сезон




2Сезон




Внимание! Раздача пополняется по мере выхода новых серий!





Раздача ведётся путём добавления новых серий; при каждом добавлении создётся новый торрент.
Чтобы начать докачку новой серии, пользователям необходимо сделать следующее:
1. остановить скачивание,
2. удалить старый торрент у себя из клиента (старые серии удалять не надо),
3. скачать новый торрент и запустить его у себя в клиенте вместо старого, при этом указать клиенту путь в старую папку, куда и должно происходить скачивание новых серий.
Ваш клиент при этом должен произвести хеширование (проверку) старой папки (если не производит сам - помогите ему сделать это), и будет докачивать только те серии которых у вас ещё нет. Старые серии при этом не удаляются, а продолжают раздаваться!
Eсли вы уже удалили старые серии, то предотвратить повторную закачку старых серий можно, отжав галочку в соответсвующих местах при запуске нового торрента. По возможности, желательно не удалять старые серии как можно дольше, чтобы релизёр не столько продолжал раздавать старые серии, а смог сконцентрироваться на новых.
Совет для тех, кто не хочет ждать перехеширования:
Создайте ещё одну папку рядом с папкой сериала (рядом, а не в ней!!!). Каждую новую серию после удачной загрузки копируйте в новую папку так чтобы ваша основная папка всегда была пуста. Когда ваш новый торрент предложит вам закачать все файлы, выберете только последнюю. Для сидирования же укажите адрес новой папки.
Как закачать отдельный файл из торрента или докачать ранее пропущенные файлы торрента!


1. Открыть торрент
2. Снять галки с тех файлов торрента, которые мы не хотим закачивать. Оставляем только на нужных нам файлах (файле).
3. Нажать О.К.
В клиенте utorrent
Инструкция
1) Открыть торрент

2) Снять галки с тех файлов торрента, которые мы не хотим закачивать:
* либо вручную, снимая с каждого файла галку( скрин №1)
* либо, нажав кнопку "Снять метки (Select None)", сняв сразу со всех файлов(скрин №2)
№1

№2

Оставляем только на нужных нам файлах (файле).

3)Нажать О.К











Внимание!!! 209.02. 2014. РАЗДАЧА ОБНОВЛЕНА.ОБНОВИТЕ ТОРЕНТ ФАЙЛ.ПРИЯТНОГО ПРОСМОТРА .




Релиз от: Nikolai.Baranov





















   Похожие торренты   Торрент   Размер 
В этой теме нет новых непрочитанных сообщений. Баскетбол Куроко / Kuroko no Basuke TV [01-02х01-47 из 50] (2012-2014) HDTVRip-AVC 720р

68 | 197

25.9 ГБ

В этой теме нет новых непрочитанных сообщений. Баскетбол Куроко TV-3 / Kuroko no Basket TV-3 / Kuroko no Basuke TV-3 [01-13 из 24] (2015) HDTVRip 720p от SDIncorporation | L2

106 | 23

4.84 ГБ

В этой теме нет новых непрочитанных сообщений. Баскетбол Куроко TV-3 / Kuroko no Basket TV-3 / Kuroko no Basuke TV-3 [01-12 из 24] (2015) HDTVRip 720p от SDIncorporation | L2

4 | 10

4.53 ГБ

В этой теме нет новых непрочитанных сообщений. Баскетбол Куроко TV-3 / Kuroko no Basket TV-3 / Kuroko no Basuke TV-3 [01-09 из 12] (2015) HDTVRip 720p от SDIncorporation | L2

5 | 6

3.31 ГБ

В этой теме нет новых непрочитанных сообщений. Баскетбол Куроко 2 / Kuroko no Basuke 2 [TV] [01-13 из 25] (2013) HDTVRip 720p | L1

2 | 9

4.34 ГБ

В этой теме нет новых непрочитанных сообщений. Баскетбол Куроко 2 / Kuroko no Basuke 2 [TV] [01-22 из 25] (2013) HDTVRip 720p | L1

13 | 32

7.4 ГБ

В этой теме нет новых непрочитанных сообщений. Баскетбол Куроко 2 / Kuroko no Basuke 2 [TV] [01-14 из 25] (2013) HDTVRip 720p | L1

4 | 4

4.68 ГБ




Вы не можете начинать темы
Вы не можете отвечать на сообщения
Вы не можете редактировать свои сообщения
Вы не можете удалять свои сообщения
Вы не можете добавлять вложения

Перейти:  
Для Мосгорсуда, Роскомнадзора и рекламодателей: mosgorsud-torrent[собачка]yandex.ru
 Вход
ppkBB3cker v.2 © 2008-2014 @ PPK
[ Time : 0.046s | 14 Queries | GZIP : Off ]

Торрент трекер RUTOR.IN, Не можете зайти на rutor.org? Какой новый адрес рутор? Какое зеркало рутор? Не работает rutor.org и зеркала? Тогда наш торрент специально для вас. Rutor.in неофициальное зеркало rutor. В случае если у Вас заблокирован rutor или вдруг Вы не можете на него зайти, то Вы без труда сможете скачать бесплатно и без рекламы последние новинки кино, игр, сериалов и прочего у нас, на Rutor.in. Не нужно использовать прокси, чтобы зайти на рутор, достаточно воспользоваться нашим ресурсом. Все новые фильмы, игры, сериалы, книги и музыка за 2013 и 2014 годы через торрент бесплатно. Скачивайте фильмы в хорошем качестве, игры для пк, xbox, playstation без регистрации. У нас вы найдете новые Зарубежные сериалы и Русские сериалы 2013, 2014, 2015 годов. Оставайтесь с нами, качайте любимые фильмы, игры, сериалы, книги и музыку.