img image001 image001 image001 image001 image001 image001 image001 image001 image001 image001 image001 image001 image001 image001 image001

Planets Sun Sun Sun
Статистика раздачи
Автор: PriZraK | Размер: 1.1 ГБ | Добавлен: 15 фев 2014
Раздают: 138    Качают: 8
Скачать торрент
Скачать торрент
Описание торрента

СообщениеДобавлено: 15 фев 2014 

Железобетон / Tekkon kinkurîto (2006) HDRip-AVC [480p] | iPhone | P


Название: Железобетон
Оригинальное название: Tekkon kinkurîto
Год выхода: 2006
Жанр: аниме, мультфильм, фантастика, боевик, криминал, приключени
Режиссер: Майкл Ариас
В ролях: Казунари Ниномия, Аои Ю, Юсукэ Исейа, Канкуро Кудо Мин Танака, Рокуро Ная, Томоми Нисимура, Мугихито, Нао Омори, Ёсинори Окада

О фильме:
Футуристический мир Города Богатств (Treasure Town), в котором проживают двое мальчиков сирот, построен на величайшем контрасте: иногда жизнь здесь проявляет свои дары, порой она может обойтись крайне жестоко. Днем и ночью герои вынуждены скитаться по улицам, в поисках способа заработать денег. Но краски сгущаются, когда Black & White – оказываются связанными миссией: сразится и отвоевать у злоумышленников, мечтающих завладеть властью в метрополисе, то, что считается душой Города и спасти самих себя.
На стыке старых традиций и новых технологий, на знании центральных площадей и ландшафтов, с использованием потрясающих визуальных эффектов гениальному режиссеру и постановщику компьютерной графики Майклу Ариас удалось создать реальный Город Будущего, наделенный восточной спецификой. Креативная команда всего мира трудилась над созданием этого Аниме.


Страна: Япония
Студия: © Aniplex, Asmik Ace Entertainment, Beyond C
Продолжительность: 01:46:01
Перевод: Русский профессиональный многоголосый закадровый

Файл
Кодек: H.264
Качество: HDRip-AVC 480p iPhone
Видео: 640x362 (852x460) at 23.976 fps, AVC at 1106 kbps
Звук:
1: 48 kHz, AAC 2.0, 186 kbps - Русский профессиональный многоголосый закадровый
2: 48 kHz, AAC 2.0, 192 kbps - Японский

Субтитры: Русские, Английские

Sort Name: Tekkonkinkreet
XID: Apple:vendor_id:2007-tt0831888
Content ID: 274167604
Copyright: © Aniplex, Asmik Ace Entertainment, Beyond C.
ScreenWriters: Таио Мацумото, Энтони Вентрауб
Producers: Эйчи Камагата, Эйко Танака, Масару Тоёсима
Director: Michael Arias & Hiroaki Ando
Cast: Казунари Ниномия, Аои Ю, Юсукэ Исейа, Канкуро Кудо Мин Танака, Рокуро Ная, Томоми Нисимура, Мугихито, Нао Омори, Ёсинори Окада
Rating: R
Long Deion: Футуристический мир Города Богатств, в котором проживают двое мальчиков сирот, построен на величайшем контрасте; иногда жизнь здесь проявляет свои дары, порой она может обойтись крайне жестоко. Их называют «Black & White». На восходе и закате они охраняют свой город. Днем и ночью герои вынуждены скитаться по улицам, в поисках способа заработать денег. Но краски сгущаются, когда очи оказываются связанными миссией: сразится и отвоевать у злоумышленников, мечтающих завладеть властью в метрополисе, то, что считается душой Города и спасти самих себя
Deion: Футуристический мир Города Богатств, в котором проживают двое мальчиков сирот, построен на величайшем контрасте; иногда жизнь здесь проявляет свои дары, порой она может обойтись крайне жестоко. Их называют «Black & White».
Release Date: 2007-09-25T07:00:00Z
Genre: Anime
Artist: Майкл Ариас
Name: Железобетон
General
Complete name : C:CREATE480outTekkonkinkreet.2006 (SD).m4v
Format : MPEG-4
Codec ID : M4V
File size : 1.10 GiB
Duration : 1h 46mn
Overall bit rate mode : Variable
Overall bit rate : 1 488 Kbps
Movie name : Железобетон
Performer : Майкл Ариас
Genre : Anime
Recorded date : 2007-09-25T07:00:00Z
Encoded date : UTC 2013-08-03 18:35:50
Tagged date : UTC 2013-08-03 18:38:14
Copyright : © Aniplex, Asmik Ace Entertainment, Beyond C.
Cover : Yes
sonm : Tekkonkinkreet
desc : Футуристический мир Города Богатств, в котором проживают двое мальчиков сирот, построен на величайшем контрасте; иногда жизнь здесь проявляет свои дары, порой она может обойтись крайне жестоко. Их называют «Black & White».
ldes : Футуристический мир Города Богатств, в котором проживают двое мальчиков сирот, построен на величайшем контрасте; иногда жизнь здесь проявляет свои дары, порой она может обойтись крайне жестоко. Их называют «Black & White». На восходе и закате они охраняют свой город. Днем и ночью герои вынуждены скитаться по улицам, в поисках способа заработать денег. Но краски сгущаются, когда очи оказываются связанными миссией: сразится и отвоевать у злоумышленников, мечтающих завладеть властью в метрополисе, то, что считается душой Города и спасти самих себя
hdvd : 0
stik : 9
akID : -1
sfID : 0
cnID : 274167604
xid : Apple:vendor_id:2007-tt0831888
iTunEXTC : mpaa|R|400|

Video
ID : 1
Format : AVC
Format/Info : Advanced Video Codec
Format profile : Baseline@L3.0
Format settings, CABAC : No
Format settings, ReFrames : 2 frames
Codec ID : avc1
Codec ID/Info : Advanced Video Coding
Duration : 1h 46mn
Bit rate : 1 106 Kbps
Maximum bit rate : 6 208 Kbps
Width : 640 pixels
Height : 362 pixels
Display aspect ratio : 2.35:1
Frame rate mode : Constant
Frame rate : 25.000 fps
Color space : YUV
Chroma subsampling : 4:2:0
Bit depth : 8 bits
Scan type : Progressive
Bits/(Pixel*Frame) : 0.191
Stream size : 839 MiB (74%)
Title : Tekkonkinkreet (2006) Released for NNM-Club by gekka
Writing library : x264 core 133 r2334+704+50 a7549b7 tMod [8-bit@4:2:0 X86_64]
Encoding settings : cabac=0 / ref=2 / deblock=1:-2:-2 / analyse=0x1:0x131 / me=umh / subme=7 / psy=1 / fade_compensate=1.00 / psy_rd=0.40:0.15 / mixed_ref=1 / me_range=32 / chroma_me=1 / trellis=2 / 8x8dct=0 / cqm=0 / deadzone=21,11 / fast_pskip=0 / chroma_qp_offset=-3 / threads=12 / lookahead_threads=2 / sliced_threads=0 / nr=0 / decimate=0 / interlaced=0 / bluray_compat=0 / constrained_intra=0 / fgo=0 / bframes=0 / weightp=0 / keyint=250 / keyint_min=25 / scenecut=40 / intra_refresh=0 / rc_lookahead=120 / rc=crf / mbtree=1 / crf=20.0000 / qcomp=0.70 / qpmin=0 / qpmax=69 / qpstep=4 / vbv_maxrate=5000 / vbv_bufsize=5000 / crf_max=0.0 / nal_hrd=none / ip_ratio=1.40 / aq=4:0.80 / aq-sensitivity=10.00 / aq-factor=1.00:1.00:1.00 / aq2=0 / aq3=0
Language : English
Encoded date : UTC 2013-08-03 18:35:50
Tagged date : UTC 2013-08-03 18:36:39
Matrix coefficients : BT.709

Audio #1
ID : 2
Format : AAC
Format/Info : Advanced Audio Codec
Format profile : LC
Codec ID : 40
Duration : 1h 46mn
Bit rate mode : Variable
Bit rate : 186 Kbps
Maximum bit rate : 234 Kbps
Channel(s) : 2 channels
Channel positions : Front: L R
Sampling rate : 48.0 KHz
Compression mode : Lossy
Stream size : 141 MiB (13%)
Title : AAC Russian
Language : English
Encoded date : UTC 2013-08-03 18:36:23
Tagged date : UTC 2013-08-03 18:36:39

Audio #2
ID : 3
Format : AAC
Format/Info : Advanced Audio Codec
Format profile : LC
Codec ID : 40
Duration : 1h 46mn
Bit rate mode : Variable
Bit rate : 192 Kbps
Maximum bit rate : 231 Kbps
Channel(s) : 2 channels
Channel positions : Front: L R
Sampling rate : 48.0 KHz
Compression mode : Lossy
Stream size : 146 MiB (13%)
Title : AAC Japanese
Language : Japanese
Encoded date : UTC 2013-08-03 18:36:31
Tagged date : UTC 2013-08-03 18:36:39

Text #1
ID : 4
Format : Timed Text
Muxing mode : sbtl
Codec ID : tx3g
Duration : 1h 39mn
Bit rate mode : Variable
Bit rate : 76 bps
Stream size : 55.6 KiB (0%)
Title : Subtitle Russian
Language : Russian
Encoded date : UTC 2013-08-03 18:36:39
Tagged date : UTC 2013-08-03 18:36:39

Text #2
ID : 5
Format : Timed Text
Muxing mode : sbtl
Codec ID : tx3g
Duration : 1h 39mn
Bit rate mode : Variable
Bit rate : 45 bps
Stream size : 32.6 KiB (0%)
Title : Subtitle English
Language : English
Encoded date : UTC 2013-08-03 18:36:39
Tagged date : UTC 2013-08-03 18:36:39
x264 [info]: frame I:2877 Avg QP:17.69 size: 30953
x264 [info]: frame P:156172 Avg QP:20.48 size: 5061
x264 [info]: mb I I16..4: 33.8% 0.0% 66.2%
x264 [info]: mb P I16..4: 2.4% 0.0% 2.2% P16..4: 39.1% 10.5% 4.9% 1.2% 0.5% skip:39.3%
x264 [info]: coded y,uvDC,uvAC intra: 50.5% 65.1% 37.7% inter: 25.7% 26.8% 10.4%
x264 [info]: i16 v,h,dc,p: 41% 20% 12% 28%
x264 [info]: i4 v,h,dc,ddl,ddr,vr,hd,vl,hu: 28% 17% 15% 6% 7% 8% 6% 7% 5%
x264 [info]: i8c dc,h,v,p: 53% 16% 23% 8%
x264 [info]: ref P L0: 74.2% 25.8%
x264 [info]: kb/s:1105.93




   Похожие торренты   Торрент   Размер 
В этой теме нет новых непрочитанных сообщений. Железобетон / Tekkon Kinkurito (2006) BDRip от HQ-ViDEO

36 | 16

2.18 ГБ

В этой теме нет новых непрочитанных сообщений. Железобетон / Tekkon Kinkreet (2006) BDRip 1080p от NNNB | P

63 | 26

5.77 ГБ

В этой теме нет новых непрочитанных сообщений. Альфа Дог / Alpha Dog (2006) HDRip-AVC | iPhone

45 | 3

648.96 МБ

В этой теме нет новых непрочитанных сообщений. Вавилон / Babel (2006) HDRip-AVC | iPhone

16 | 2

791.82 МБ

В этой теме нет новых непрочитанных сообщений. Отступники / The Departed (2006) HDRip-AVC | iPhone

21 | 2

837.03 МБ

В этой теме нет новых непрочитанных сообщений. Бобби / Bobby (2006) HDRip-AVC | iPhone

1 | 2

644.62 МБ

В этой теме нет новых непрочитанных сообщений. Престиж / The Prestige (2006) HDRip-AVC | iPhone

88 | 4

722.04 МБ




Вы не можете начинать темы
Вы не можете отвечать на сообщения
Вы не можете редактировать свои сообщения
Вы не можете удалять свои сообщения
Вы не можете добавлять вложения

Перейти:  
Для Мосгорсуда, Роскомнадзора и рекламодателей: mosgorsud-torrent[собачка]yandex.ru
 Вход
ppkBB3cker v.2 © 2008-2014 @ PPK
[ Time : 0.035s | 16 Queries | GZIP : Off ]

cron