img image001 image001 image001 image001 image001 image001 image001 image001 image001 image001 image001 image001 image001 image001 image001

Planets Sun Sun Sun
Статистика раздачи
Автор: Nickolas3434 | Размер: 1.82 ГБ | Добавлен: 17 фев 2014
Раздают: 132    Качают: 29
Скачать торрент
Скачать торрент
Описание торрента

СообщениеДобавлено: 17 фев 2014 

Ходячий замок / Hauru no ugoku shiro (2004) BDRip-AVC | iPhone | D,P


Название: Ходячий замок
Оригинальное название: Hauru no ugoku shiro
Год выхода: 2004
Жанр: аниме, мультфильм, фантастика, фэнтези, мелодрама, приключения
Режиссер: Хаяо Миядзаки
В ролях: Тиэко Байсё, Такуя Кимура, Акихиро Мива, Тацуя Гасюин, Рюноскэ Камики, Мицунори Исаки, Ё Ойзуми, Акио Ютсука, Дайдзиро Харада, Харуко Като

О фильме:
Злая ведьма заточила 18-летнюю Софи в тело старухи. В поисках того, кто поможет ей вернуться к своему облику, Софи знакомится с могущественным волшебником Хаулом и его демоном Кальцифером. Кальцифер должен служить Хаулу по договору, условия которого он не может разглашать. Девушка и демон решают помочь друг другу избавиться от злых чар...


Страна: Япония
Студия: Studio Ghibli, Buena Vista Home Entertainment, d-rights, Mitsubishi Corportaion, DENTSU Music And Entertainment Inc.
Продолжительность: 01:59:10
Перевод: Русский дублированный (ОРТ), профессиональный многоголосый закадровый (CP Digital)

Файл
Кодек: H.264
Качество: BDRip-AVC 480p iPhone
Видео: 640x460@851x460 (1.85:1) at 23.976 fps, AVC at 1740 kbps
Звук:
1: 48 kHz, AAC 2.0, 100 kbps - Русский дублированный (ОРТ)
2: 48 kHz, AAC 2.0, 180 kbps - Русский профессиональный многоголосый закадровый (CP Digital)
3: 48 kHz, AAC 2.0, 180 kbps - Японский
Субтитры: Русские (OutSun)

General
Complete name : C:CREATE480outHowls Moving Castle.2004 (SD).m4v
Format : MPEG-4
Codec ID : M4V
File size : 1.82 GiB
Duration : 1h 59mn
Overall bit rate mode : Variable
Overall bit rate : 2 191 Kbps
Movie name : Ходячий замок
Performer : Hayao Miyazaki
Genre : Animation
Recorded date : 2004-11-19
Encoded date : UTC 2014-02-15 04:19:17
Tagged date : UTC 2014-02-15 05:03:05
Copyright : Buena Vista Home Entertainment
Cover : Yes
sonm : Hauru no ugoku shiro
desc : Злая ведьма заточила 18-летнюю Софи в тело старухи. В поисках того, кто поможет ей вернуться к своему облику, Софи знакомится с могущественным волшебником Хаулом и его демоном Кальцифером.
ldes : Злая ведьма заточила 18-летнюю Софи в тело старухи. В поисках того, кто поможет ей вернуться к своему облику, Софи знакомится с могущественным волшебником Хаулом и его демоном Кальцифером. Кальцифер должен служить Хаулу по договору, условия которого он не может разглашать. Девушка и демон решают помочь друг другу избавиться от злых чар…
stik : 9
rtng : 0
cnID : 49684
xid : Apple:vendor_id:2004-49684
iTunEXTC : mpaa|PG|200|

Video #1
ID : 1
Format : AVC
Format/Info : Advanced Video Codec
Format profile : Baseline@L3.0
Format settings, CABAC : No
Format settings, ReFrames : 2 frames
Codec ID : avc1
Codec ID/Info : Advanced Video Coding
Duration : 1h 59mn
Bit rate : 1 740 Kbps
Maximum bit rate : 7 373 Kbps
Width : 640 pixels
Height : 460 pixels
Display aspect ratio : 1.85:1
Frame rate mode : Constant
Frame rate : 23.976 fps
Color space : YUV
Chroma subsampling : 4:2:0
Bit depth : 8 bits
Scan type : Progressive
Bits/(Pixel*Frame) : 0.247
Stream size : 1.45 GiB (79%)
Title : Howl_s Moving Castle _2004_
Writing library : x264 core 140 r2377+40 929f149 tMod [8-bit@4:2:0 X86_64]
Encoding settings : cabac=0 / ref=2 / deblock=1:0:0 / analyse=0x1:0x131 / me=umh / subme=7 / psy=1 / fade_compensate=1.00 / psy_rd=0.40:0.15 / mixed_ref=1 / me_range=32 / chroma_me=1 / trellis=2 / 8x8dct=0 / cqm=0 / deadzone=21,11 / fast_pskip=1 / chroma_qp_offset=-3 / threads=12 / lookahead_threads=2 / sliced_threads=0 / nr=0 / decimate=0 / interlaced=0 / bluray_compat=0 / constrained_intra=0 / fgo=0 / bframes=0 / weightp=0 / keyint=250 / keyint_min=23 / scenecut=40 / intra_refresh=0 / rc_lookahead=120 / rc=crf / mbtree=1 / crf=20.0000 / qcomp=0.70 / qpmin=0:0:0 / qpmax=69:69:69 / qpstep=4 / vbv_maxrate=5000 / vbv_bufsize=5000 / crf_max=0.0 / nal_hrd=none / filler=0 / ip_ratio=1.40 / aq=1:0.90 / aq-sensitivity=10.00 / aq-factor=1.00:1.00:1.00 / aq2=0 / aq3=0
Language : Japanese
Encoded date : UTC 2014-02-15 04:19:17
Tagged date : UTC 2014-02-15 04:19:57
Matrix coefficients : BT.709

Video #2
ID : 7
Format : JPEG
Codec ID : jpeg
Duration : 1h 59mn
Bit rate mode : Variable
Bit rate : 1 751 bps
Width : 640 pixels
Height : 345 pixels
Display aspect ratio : 1.85:1
Frame rate mode : Variable
Frame rate : 0.003 fps
Minimum frame rate : 0.002 fps
Maximum frame rate : 0.016 fps
Color space : YUV
Chroma subsampling : 4:2:0
Bit depth : 8 bits
Compression mode : Lossy
Bits/(Pixel*Frame) : 2.643
Stream size : 1.67 MiB (0%)
Language : Japanese
Encoded date : UTC 2014-02-15 05:02:58
Tagged date : UTC 2014-02-15 05:02:59

Audio #1
ID : 2
Format : AAC
Format/Info : Advanced Audio Codec
Format profile : LC
Codec ID : 40
Duration : 1h 58mn
Bit rate mode : Variable
Bit rate : 89.8 Kbps
Maximum bit rate : 197 Kbps
Channel(s) : 2 channels
Channel positions : Front: L R
Sampling rate : 48.0 KHz
Compression mode : Lossy
Stream size : 76.4 MiB (4%)
Title : DUB
Language : Russian
Encoded date : UTC 2014-02-15 04:07:20
Tagged date : UTC 2014-02-15 04:19:57

Audio #2
ID : 3
Format : AAC
Format/Info : Advanced Audio Codec
Format profile : LC
Codec ID : 40
Duration : 1h 59mn
Bit rate mode : Variable
Bit rate : 179 Kbps
Maximum bit rate : 234 Kbps
Channel(s) : 2 channels
Channel positions : Front: L R
Sampling rate : 48.0 KHz
Compression mode : Lossy
Stream size : 153 MiB (8%)
Title : MVO
Language : Russian
Encoded date : UTC 2014-02-15 04:10:32
Tagged date : UTC 2014-02-15 04:19:57

Audio #3
ID : 4
Format : AAC
Format/Info : Advanced Audio Codec
Format profile : LC
Codec ID : 40
Duration : 1h 59mn
Bit rate mode : Variable
Bit rate : 174 Kbps
Maximum bit rate : 236 Kbps
Channel(s) : 2 channels
Channel positions : Front: L R
Sampling rate : 48.0 KHz
Compression mode : Lossy
Stream size : 148 MiB (8%)
Language : Japanese
Encoded date : UTC 2014-02-15 04:14:01
Tagged date : UTC 2014-02-15 04:19:57

Text
ID : 5
Format : Timed Text
Muxing mode : sbtl
Codec ID : tx3g
Duration : 1h 54mn
Bit rate mode : Variable
Bit rate : 67 bps
Stream size : 56.0 KiB (0%)
Title : Subtitle Russian _OutSun_
Language : Russian
Encoded date : UTC 2014-02-15 04:19:57
Tagged date : UTC 2014-02-15 04:19:57

Menu
ID : 6
Codec ID : text
Duration : 1h 59mn
Language : Japanese
Encoded date : UTC 2014-02-15 04:21:48
Tagged date : UTC 2014-02-15 04:21:48
Bit rate mode : CBR

Sort Name: Hauru no ugoku shiro
XID: Apple:vendor_id:2004-49684
contentID: 49684
Copyright: Buena Vista Home Entertainment
Screenwriters: Хаяо Миядзаки, Диана Уинн Джонс
Producers: Рик Демпси, Нед Лотт, Тосио Судзуки
Director: Хаяо Миядзаки
Cast: Takuya Kimura (Hauru), Akihiro Miwa (Arechi no Majo), Tatsuya Gashûin (Karushifâ), Mitsunori Isaki (Koshô), Yo Oizumi (Kakashi no Kabu), Akio Ôtsuka (Kokuô), Daijiro Harada (Hin), Haruko Kato (Sariman), Christian Bale (Howl), Jean Simmons (Sophie), Lauren Bacall (Witch of the Waste), Blythe Danner (Madame Suliman), Emily Mortimer (Young Sophie), Josh Hutcherson (Markl), Billy Crystal (Calcifer), Ryûnosuke Kamiki (Marukuru), Chieko Baishô (Sofi)
Studio: Studio Ghibli, Buena Vista Home Entertainment, d-rights, Mitsubishi Corportaion, DENTSU Music And Entertainment Inc.
Rating: 3
Long Deion: Злая ведьма заточила 18-летнюю Софи в тело старухи. В поисках того, кто поможет ей вернуться к своему облику, Софи знакомится с могущественным волшебником Хаулом и его демоном Кальцифером. Кальцифер должен служить Хаулу по договору, условия которого он не может разглашать. Девушка и демон решают помочь друг другу избавиться от злых чар…
Deion: Злая ведьма заточила 18-летнюю Софи в тело старухи. В поисках того, кто поможет ей вернуться к своему облику, Софи знакомится с могущественным волшебником Хаулом и его демоном Кальцифером.
Release Date: 2004-11-19
Genre: Animation
Artist: Hayao Miyazaki
Name: Ходячий замок
x264 [info]: frame I:2038 Avg QP:18.02 size: 53865
x264 [info]: frame P:169369 Avg QP:20.97 size: 8533
x264 [info]: mb I I16..4: 22.1% 0.0% 77.9%
x264 [info]: mb P I16..4: 1.0% 0.0% 1.6% P16..4: 43.8% 9.9% 5.7% 1.7% 0.9% skip:35.4%
x264 [info]: coded y,uvDC,uvAC intra: 66.7% 73.5% 54.7% inter: 29.4% 27.4% 14.8%
x264 [info]: i16 v,h,dc,p: 47% 17% 15% 20%
x264 [info]: i4 v,h,dc,ddl,ddr,vr,hd,vl,hu: 29% 15% 17% 7% 6% 7% 6% 8% 5%
x264 [info]: i8c dc,h,v,p: 51% 17% 23% 9%
x264 [info]: ref P L0: 72.0% 28.0%
x264 [info]: kb/s:1740.09




   Похожие торренты   Торрент   Размер 
В этой теме нет новых непрочитанных сообщений. Ходячий замок / Howl's Moving Castle / Hauru no Ugoku Shiro (2004) BDRip-AVC от MediaClub | D, P, P2, A, L1

123 | 17

4.86 ГБ

В этой теме нет новых непрочитанных сообщений. Ходячий замок / Howl's Moving Castle / Hauru no Ugoku Shiro (2004) HDRip от Scarabey

1211 | 36

1.45 ГБ

В этой теме нет новых непрочитанных сообщений. Ходячий замок / Hauru no ugoku shiro / Howl's Moving Castle (2004) HDTVRip от HQ-ViDEO

84 | 5

2.18 ГБ

В этой теме нет новых непрочитанных сообщений. Ходячий замок / Howl's Moving Castle / Hauru no Ugoku Shiro (2004) HDRip от Scarabey

52 | 16

748.34 МБ

В этой теме нет новых непрочитанных сообщений. Ходячий замок / Hauru no ugoku shiro (2004) BDRip 720p от leonardo 59 & Scarabey

689 | 26

3.41 ГБ

В этой теме нет новых непрочитанных сообщений. Шагающий замок Хаула (Ходячий замок) / Howl's Moving Castle (2004) HDTV 720p

545 | 32

3.24 ГБ

В этой теме нет новых непрочитанных сообщений. Ходячий замок / Howl's Moving Castle (2004) DVD5

21 | 4

4.36 ГБ




Вы не можете начинать темы
Вы не можете отвечать на сообщения
Вы не можете редактировать свои сообщения
Вы не можете удалять свои сообщения
Вы не можете добавлять вложения

Перейти:  
Для Мосгорсуда, Роскомнадзора и рекламодателей: mosgorsud-torrent[собачка]yandex.ru
 Вход
ppkBB3cker v.2 © 2008-2014 @ PPK
[ Time : 0.550s | 15 Queries | GZIP : On ]

Торрент трекер RUTOR.IN, Не можете зайти на rutor.org? Какой новый адрес рутор? Какое зеркало рутор? Не работает rutor.org и зеркала? Тогда наш торрент специально для вас. Rutor.in неофициальное зеркало rutor. В случае если у Вас заблокирован rutor или вдруг Вы не можете на него зайти, то Вы без труда сможете скачать бесплатно и без рекламы последние новинки кино, игр, сериалов и прочего у нас, на Rutor.in. Не нужно использовать прокси, чтобы зайти на рутор, достаточно воспользоваться нашим ресурсом. Все новые фильмы, игры, сериалы, книги и музыка за 2013 и 2014 годы через торрент бесплатно. Скачивайте фильмы в хорошем качестве, игры для пк, xbox, playstation без регистрации. У нас вы найдете новые Зарубежные сериалы и Русские сериалы 2013, 2014, 2015 годов. Оставайтесь с нами, качайте любимые фильмы, игры, сериалы, книги и музыку.