img image001 image001 image001 image001 image001 image001 image001 image001 image001 image001 image001 image001 image001 image001 image001

Planets Sun Sun Sun
Статистика раздачи
Автор: Nickolas3434 | Размер: 4.15 ГБ | Добавлен: 18 фев 2014
Раздают: 66    Качают: 25
Скачать торрент
Скачать торрент
Описание торрента

СообщениеДобавлено: 18 фев 2014 

009 король: Киборг
009 Re: Cyborg



Год выпуска: 2012
Страна: Япония (Production I.G., Sanzigen SGI-Animation, ...)
Жанр: Аниме, Мультфильм, Фантастика, Боевик
Продолжительность: 01:43:28

Перевод: Любительский многоголосый закадровый (2 шт) + Любительский одноголосый закадровый

Режиссер: Кэндзи Камияма / Kenji Kamiyama

Роли озвучивали: Хисао Егава (Geronimo Jr., Cyborg 005), Тошико Фудзита (Ivan Whisky, Cyborg 001), Хироши Камия (Joe Shimamura, Cyborg 009), Хоко Кувасима (Françoise Arnoul, Cyborg 003), Хикару Мидорикава (Pyunma, Cyborg 008), Кадзуя Накаи (Albert Heinrich, Cyborg 004), Окиаю Рётаро (Jet Link, Cyborg 002), Масая Оносака (Great Britain, Cyborg 007), Наоки Татсута (Changku, Cyborg 006)

Описание: Современная история 2013 года.
В Лондоне, Москве, Берлине, Нью-Йорке одновременно произошло несколько взрывов; большие небоскрёбы, в них рухнули один за другим. Неожиданная атака террористов повергла мир в панику. В прошлом, когда мир однажды уже находился в кризисе, было девять киборгов-войнов, которые спасли его от гибели.
Доктор Гилмор, являющийся их создателем, снова пытается собрать свою команду, члены которой, к этому времени, находятся, каждый, на своей родине.
Кто стоит за всеми этими терактами? С кем предстоит им бороться на этот раз?
Им вновь вернут память, которая была стёрта, после последних событий. И как только это случится, отряд Zero Zero возрождённых киборгов, начнёт битву с всемирным злом.



Премьера (мир): 27 октября 2012





Качество: BDRip (by Ash61)
Контейнер: MKV
Формат 3D: Half OverUnder / Вертикальная анаморфная стереопара
Порядок ракурсов: левый ракурс первый
Видео кодек: x264
Аудио кодек: AC3



Видео: AVC / 23,976 fps / 1920х1080p / ~3.9 Mbps

Аудио:
#1 - Русский / AC3 / 48 KHz / 5.1 ch / 640 Kbps (MVO - loster01 & Emeri & Shoker & GreyMoon [[LE-Production] & [Anilibria]; Перевод - Shadow_Man])
#2 - Русский / AC3 / 48 KHz / 2 ch / 256 Kbps (MVO - AniDub; Перевод - Cuba77)
#3 - Русский / AC3 / 48 KHz / 2 ch / 192 Kbps (VO - Henesy [Animereactor])
#4 - Японский / AC3 / 48 KHz / 5.1 ch / 640 Kbps (Original - BD 3D)

Субтитры: Внешние (SRT UTF-8) Русские полные [notabenoid]
Спасибо всем озвучивальщикам и переводчикам!

General
Unique ID : 243286896542132894423395830674228211797 (0xB7075A16F4468EE0AE369275E58F7055)
Complete name : E:\009Re.Cyborg(2012)3D-halfOU(Ash61)VO(x3)\009Re.Cyborg(2012)3D-halfOU(Ash61)VO(x3).mkv
Format : Matroska
Format version : Version 2
File size : 4.15 GiB
Duration : 1h 43mn
Overall bit rate : 5 742 Kbps
Movie name : 009 король: Киборг / 009 Re: Cyborg (2012) 3D
Encoded date : UTC 2014-02-17 17:21:34
Writing application : mkvmerge v5.8.0 ('No Sleep / Pillow') built on Sep 2 2012 15:37:04
Writing library : libebml v1.2.3 + libmatroska v1.3.0

Video
ID : 1
Format : AVC
Format/Info : Advanced Video Codec
Format profile : High@L4.1
Format settings, CABAC : Yes
Format settings, ReFrames : 4 frames
Codec ID : V_MPEG4/ISO/AVC
Duration : 1h 43mn
Bit rate : 3 900 Kbps
Width : 1 920 pixels
Height : 1 080 pixels
Display aspect ratio : 16:9
Frame rate mode : Constant
Frame rate : 23.976 fps
Color space : YUV
Chroma subsampling : 4:2:0
Bit depth : 8 bits
Scan type : Progressive
Bits/(Pixel*Frame) : 0.078
Stream size : 2.82 GiB (68%)
Title : BDRip by Ash61
Writing library : x264 core 129 r2245 bc13772
Encoding settings : cabac=1 / ref=4 / deblock=1:-3:-3 / analyse=0x3:0x113 / me=umh / subme=10 / psy=1 / psy_rd=1.00:0.15 / mixed_ref=1 / me_range=32 / chroma_me=1 / trellis=2 / 8x8dct=1 / cqm=0 / deadzone=21,11 / fast_pskip=1 / chroma_qp_offset=-3 / threads=12 / lookahead_threads=2 / sliced_threads=0 / nr=0 / decimate=1 / interlaced=0 / bluray_compat=0 / constrained_intra=0 / bframes=10 / b_pyramid=2 / b_adapt=2 / b_bias=0 / direct=3 / weightb=1 / open_gop=0 / weightp=2 / keyint=250 / keyint_min=23 / scenecut=40 / intra_refresh=0 / rc_lookahead=60 / rc=crf / mbtree=1 / crf=17.5 / qcomp=0.70 / qpmin=0 / qpmax=69 / qpstep=4 / vbv_maxrate=40000 / vbv_bufsize=30000 / crf_max=0.0 / nal_hrd=none / frame-packing=4 / ip_ratio=1.40 / aq=1:0.70
Language : Japanese
Default : Yes
Forced : No

Audio #1
ID : 2
Format : AC-3
Format/Info : Audio Coding 3
Mode extension : CM (complete main)
Format settings, Endianness : Big
Codec ID : A_AC3
Duration : 1h 43mn
Bit rate mode : Constant
Bit rate : 640 Kbps
Channel(s) : 6 channels
Channel positions : Front: L C R, Side: L R, LFE
Sampling rate : 48.0 KHz
Bit depth : 16 bits
Compression mode : Lossy
Stream size : 474 MiB (11%)
Title : Многоголосый закадровый - loster01, Emeri & Shoker & GreyMoon (Shadow_Man)
Language : Russian
Default : Yes
Forced : No

Audio #2
ID : 3
Format : AC-3
Format/Info : Audio Coding 3
Mode extension : CM (complete main)
Format settings, Endianness : Big
Codec ID : A_AC3
Duration : 1h 43mn
Bit rate mode : Constant
Bit rate : 256 Kbps
Channel(s) : 2 channels
Channel positions : Front: L R
Sampling rate : 48.0 KHz
Bit depth : 16 bits
Compression mode : Lossy
Stream size : 189 MiB (4%)
Title : Многоголосый закадровый - AniDub
Language : Russian
Default : No
Forced : No

Audio #3
ID : 4
Format : AC-3
Format/Info : Audio Coding 3
Mode extension : CM (complete main)
Format settings, Endianness : Big
Codec ID : A_AC3
Duration : 1h 43mn
Bit rate mode : Constant
Bit rate : 192 Kbps
Channel(s) : 2 channels
Channel positions : Front: L R
Sampling rate : 48.0 KHz
Bit depth : 16 bits
Compression mode : Lossy
Stream size : 142 MiB (3%)
Title : Одноголосый закадровый - Henesy
Language : Russian
Default : No
Forced : No

Audio #4
ID : 5
Format : AC-3
Format/Info : Audio Coding 3
Mode extension : CM (complete main)
Format settings, Endianness : Big
Codec ID : A_AC3
Duration : 1h 43mn
Bit rate mode : Constant
Bit rate : 640 Kbps
Channel(s) : 6 channels
Channel positions : Front: L C R, Side: L R, LFE
Sampling rate : 48.0 KHz
Bit depth : 16 bits
Compression mode : Lossy
Stream size : 474 MiB (11%)
Title : Original - BD 3D
Language : Japanese
Default : No
Forced : No

Menu
00:00:00.000 : :1
00:06:48.116 : :2
00:12:29.499 : :3
00:19:13.486 : :4
00:23:04.049 : :5
00:28:52.773 : :6
00:32:43.378 : :7
00:38:42.612 : :8
00:43:16.177 : :9
00:47:38.063 : :10
00:53:17.736 : :11
00:58:54.281 : :12
01:04:47.967 : :13
01:08:18.386 : :14
01:13:47.631 : :15
01:19:11.580 : :16
01:25:34.796 : :17
01:33:15.798 : :18
01:38:38.329 : :19


















   Похожие торренты   Торрент   Размер 
В этой теме нет новых непрочитанных сообщений. Король сафари / Кумба / Khumba (2013) BDRip 1080p от Ash61 | 3D-Video | halfOU | Лицензия

414 | 55

4.16 ГБ

В этой теме нет новых непрочитанных сообщений. 009 король: Киборг / 009 Re: Cyborg (2012) BDRip 720p | LE-Production & Anilibria

97 | 8

2.73 ГБ

В этой теме нет новых непрочитанных сообщений. Король обезьян / Xi you ji: Da nao tian gong / The Monkey King (2014) BDRip 1080p от Ash61 | 3D-Video | halfOU | L1

94 | 106

12.54 ГБ

В этой теме нет новых непрочитанных сообщений. Король обезьян: Начало / The Monkey King the Legend Begins (2016) BDRip 1080p от Ash61 | 3D-Video | halfOU | L1

298 | 33

10.39 ГБ

В этой теме нет новых непрочитанных сообщений. Камасутра 3D / Kamasutra 3D (2012) BDRip 1080p от Ash61 | 3D-Video | halfOU

600 | 49

3.58 ГБ

В этой теме нет новых непрочитанных сообщений. Пир драконов / Dragons Feast (2012) BDRip 1080p от Ash61 | 3D-Video | halfOU | P1

59 | 62

6.42 ГБ

В этой теме нет новых непрочитанных сообщений. Охотники на демонов / Hellbenders (2012) BDRip 1080p от Ash61 | 3D-Video | halfOU

349 | 70

5.24 ГБ




Вы не можете начинать темы
Вы не можете отвечать на сообщения
Вы не можете редактировать свои сообщения
Вы не можете удалять свои сообщения
Вы не можете добавлять вложения

Перейти:  
Для Мосгорсуда, Роскомнадзора и рекламодателей: mosgorsud-torrent[собачка]yandex.ru
 Вход
ppkBB3cker v.2 © 2008-2014 @ PPK
[ Time : 0.027s | 15 Queries | GZIP : On ]

Торрент трекер RUTOR.IN, Не можете зайти на rutor.org? Какой новый адрес рутор? Какое зеркало рутор? Не работает rutor.org и зеркала? Тогда наш торрент специально для вас. Rutor.in неофициальное зеркало rutor. В случае если у Вас заблокирован rutor или вдруг Вы не можете на него зайти, то Вы без труда сможете скачать бесплатно и без рекламы последние новинки кино, игр, сериалов и прочего у нас, на Rutor.in. Не нужно использовать прокси, чтобы зайти на рутор, достаточно воспользоваться нашим ресурсом. Все новые фильмы, игры, сериалы, книги и музыка за 2013 и 2014 годы через торрент бесплатно. Скачивайте фильмы в хорошем качестве, игры для пк, xbox, playstation без регистрации. У нас вы найдете новые Зарубежные сериалы и Русские сериалы 2013, 2014, 2015 годов. Оставайтесь с нами, качайте любимые фильмы, игры, сериалы, книги и музыку.