img image001 image001 image001 image001 image001 image001 image001 image001 image001 image001 image001 image001 image001 image001 image001

Planets Sun Sun Sun
Статистика раздачи
Автор: Nickolas3434 | Размер: 1.07 ГБ | Добавлен: 22 фев 2014
Раздают: 50    Качают: 8
Скачать торрент
Скачать торрент
Описание торрента

СообщениеДобавлено: 22 фев 2014 

Могила светлячков / Grave of the Fireflies / Hotaru no Haka (1988) HDRip-AVC | iPhone | P


Название: Могила светлячков
Оригинальное название: Hotaru no Haka
Год выхода: 1988
Жанр: аниме, мультфильм, драма, военный
Режиссер: Исао Такахата
В ролях: Тсутому Татсуми, Аяно Шираиши, Йошико Синохара, Акеми Ямагучи, Рода Цроситэ, Шеннон Конли, Криспин Фриман, Дэн Грин, Эми Джонс, Джордж Ливер

О фильме:
Последние дни Второй Мировой войны. Американская авиация бомбит беззащитные японские города. В водоворот людского каждодневного кошмара попадают 14-летнии Сэйта и его сестренка Сэцуко. Понеся самую горькую утрату - потерю близких, они остались совсем одни. Юный мальчик в одночасье становится взрослым, столкнувшись с жестокостью мира. Он осознаёт, что от него зависит жизнь его маленькой сестры.
Укрывшись в заброшенном убежище, Сэйта и Сэцуко пытаются выжить, положившись только на свои силы. И пусть в глазах смертоносный огонь в небе - всего лишь огоньки светлячков, жестокая война не щадит даже невинные детские души, вынося им свой беспощадный приговор...



Страна: Япония
Студия: Studio Ghibli, Shinchosha Company

Продолжительность: 01:28:32
Перевод: Русский профессиональный многоголосый закадровый

Файл
Кодек: H.264
Качество: HDRip-AVC 480p iPhone
Видео: 640x460@852x460 (1.85:1) at 23.976 fps, AVC at 1346 kbps
Звук:
1: 48 kHz, AAC 2.0, 192 kbps - Русский профессиональный многоголосый закадровый (Омикрон)
2: 48 kHz, AAC 2.0, 160 kbps - Японский
Субтитры: Отсутствуют

General
Complete name : C:CREATE480outHotaru no haka.1988 (SD).m4v
Format : MPEG-4
Codec ID : M4V
File size : 1.07 GiB
Duration : 1h 28mn
Overall bit rate mode : Variable
Overall bit rate : 1 726 Kbps
Movie name : Могила светлячков
Performer : Исао Такахата
Genre : Anime
Recorded date : UTC 1988-04-16 07:00:00
Encoded date : UTC 2014-02-21 08:54:43
Tagged date : UTC 2014-02-21 09:07:02
Copyright : © Shinchosha Company, Studio Ghibli
Cover : Yes
Comment : Grave of the Fireflies
sonm : Hotaru no haka
desc : Последние дни Второй Мировой войны. Американская авиация бомбит беззащитные японские города. В водоворот людского каждодневного кошмара попадают 14-летнии Сэйта и его сестренка Сэцуко. Понеся самую горькую утрату — потерю близких, они остались одни …
ldes : Последние дни Второй Мировой войны. Американская авиация бомбит беззащитные японские города. В водоворот людского каждодневного кошмара попадают 14-летнии Сэйта и его сестренка Сэцуко. Понеся самую горькую утрату — потерю близких, они остались совсем одни. Юный мальчик в одночасье становится взрослым, столкнувшись с жестокостью мира. Он осознаёт, что от него зависит жизнь его маленькой сестры. Укрывшись в заброшенном убежище, Сэйта и Сэцуко пытаются выжить, положившись только на свои силы. И пусть в глазах смертоносный огонь в небе — всего лишь огоньки светлячков, жестокая война не щадит даже невинные детские души, вынося им свой беспощадный приговор…
stik : 9
rtng : 0
akID : -1
cnID : 8219
xid : Apple:vendor_id:1988-8219
iTunEXTC : de-movie|ab 12 Jahren|200|

Video #1
ID : 1
Format : AVC
Format/Info : Advanced Video Codec
Format profile : Baseline@L3.0
Format settings, CABAC : No
Format settings, ReFrames : 2 frames
Codec ID : avc1
Codec ID/Info : Advanced Video Coding
Duration : 1h 28mn
Bit rate : 1 346 Kbps
Maximum bit rate : 5 606 Kbps
Width : 640 pixels
Height : 460 pixels
Display aspect ratio : 1.85:1
Frame rate mode : Constant
Frame rate : 23.976 fps
Color space : YUV
Chroma subsampling : 4:2:0
Bit depth : 8 bits
Scan type : Progressive
Bits/(Pixel*Frame) : 0.191
Stream size : 853 MiB (78%)
Writing library : x264 core 140 r2377+40 929f149 tMod [8-bit@4:2:0 X86_64]
Encoding settings : cabac=0 / ref=2 / deblock=1:-1:-1 / analyse=0x1:0x131 / me=umh / subme=7 / psy=1 / fade_compensate=1.00 / psy_rd=0.40:0.15 / mixed_ref=1 / me_range=32 / chroma_me=1 / trellis=2 / 8x8dct=0 / cqm=0 / deadzone=21,11 / fast_pskip=0 / chroma_qp_offset=-3 / threads=12 / lookahead_threads=2 / sliced_threads=0 / nr=0 / decimate=0 / interlaced=0 / bluray_compat=0 / constrained_intra=0 / fgo=0 / bframes=0 / weightp=0 / keyint=250 / keyint_min=23 / scenecut=40 / intra_refresh=0 / rc_lookahead=80 / rc=crf / mbtree=1 / crf=19.0000 / qcomp=0.60 / qpmin=0:0:0 / qpmax=69:69:69 / qpstep=4 / vbv_maxrate=5000 / vbv_bufsize=5000 / crf_max=0.0 / nal_hrd=none / filler=0 / ip_ratio=1.30 / aq=4:0.90 / aq-sensitivity=10.00 / aq-factor=1.00:1.00:1.00 / aq2=0 / aq3=0
Language : Japanese
Encoded date : UTC 2014-02-21 08:54:43
Tagged date : UTC 2014-02-21 08:55:13
Matrix coefficients : BT.709

Video #2
ID : 5
Format : JPEG
Codec ID : jpeg
Duration : 1h 28mn
Bit rate mode : Variable
Bit rate : 731 bps
Width : 640 pixels
Height : 345 pixels
Display aspect ratio : 1.85:1
Frame rate mode : Variable
Frame rate : 0.002 fps
Minimum frame rate : 0.001 fps
Maximum frame rate : 0.917 fps
Color space : YUV
Chroma subsampling : 4:2:0
Bit depth : 8 bits
Compression mode : Lossy
Bits/(Pixel*Frame) : 1.655
Stream size : 580 KiB (0%)
Language : Japanese
Encoded date : UTC 2014-02-21 09:06:09
Tagged date : UTC 2014-02-21 09:06:09

Audio #1
ID : 2
Format : AAC
Format/Info : Advanced Audio Codec
Format profile : LC
Codec ID : 40
Duration : 1h 28mn
Bit rate mode : Variable
Bit rate : 209 Kbps
Maximum bit rate : 252 Kbps
Channel(s) : 2 channels
Channel positions : Front: L R
Sampling rate : 44.1 KHz
Compression mode : Lossy
Stream size : 132 MiB (12%)
Title : MVO _Omikron_
Language : Russian
Encoded date : UTC 2014-02-21 08:53:09
Tagged date : UTC 2014-02-21 08:55:13

Audio #2
ID : 3
Format : AAC
Format/Info : Advanced Audio Codec
Format profile : LC
Codec ID : 40
Duration : 1h 28mn
Bit rate mode : Variable
Bit rate : 165 Kbps
Maximum bit rate : 236 Kbps
Channel(s) : 2 channels
Channel positions : Front: L R
Sampling rate : 44.1 KHz
Compression mode : Lossy
Stream size : 105 MiB (10%)
Language : Japanese
Encoded date : UTC 2014-02-21 08:55:09
Tagged date : UTC 2014-02-21 08:55:13

Menu
ID : 4
Codec ID : text
Duration : 1h 28mn
Language : Japanese
Encoded date : UTC 2014-02-21 08:56:16
Tagged date : UTC 2014-02-21 08:56:16
Bit rate mode : VBR
Sort Name: Hotaru no haka
iTunes Account Type: 255
XID: Apple:vendor_id:1988-8219
contentID: 8219
Copyright: © Shinchosha Company, Studio Ghibli
Screenwriters: Исао Такахата, Акиюки Носака
Producers: Тохру Хара, Риоичи Сато
Director: Isao Takahata
Cast: Тсутому Татсуми, Аяно Шираиши, Йошико Синохара, Акеми Ямагучи, Рода Цроситэ, Шеннон Конли, Криспин Фриман, Дэн Грин, Эми Джонс, Джордж Ливер
Studio: Studio Ghibli, Shinchosha Company
Rating: 0
Long Deion: Последние дни Второй Мировой войны. Американская авиация бомбит беззащитные японские города. В водоворот людского каждодневного кошмара попадают 14-летнии Сэйта и его сестренка Сэцуко. Понеся самую горькую утрату — потерю близких, они остались совсем одни. Юный мальчик в одночасье становится взрослым, столкнувшись с жестокостью мира. Он осознаёт, что от него зависит жизнь его маленькой сестры. Укрывшись в заброшенном убежище, Сэйта и Сэцуко пытаются выжить, положившись только на свои силы. И пусть в глазах смертоносный огонь в небе — всего лишь огоньки светлячков, жестокая война не щадит даже невинные детские души, вынося им свой беспощадный приговор…
Deion: Последние дни Второй Мировой войны. Американская авиация бомбит беззащитные японские города. В водоворот людского каждодневного кошмара попадают 14-летнии Сэйта и его сестренка Сэцуко. Понеся самую горькую утрату — потерю близких, они остались одни …
Release Date: 1988-04-16T07:00:00Z
Genre: Anime
Comments: Grave of the Fireflies
Artist: Исао Такахата
Name: Могила светлячков
x264 [info]: frame I:1208 Avg QP:17.70 size: 37214
x264 [info]: frame P:126166 Avg QP:19.56 size: 6731
x264 [info]: mb I I16..4: 26.7% 0.0% 73.3%
x264 [info]: mb P I16..4: 1.3% 0.0% 0.9% P16..4: 58.0% 11.4% 5.8% 1.1% 0.5% skip:21.0%
x264 [info]: coded y,uvDC,uvAC intra: 50.8% 64.5% 43.4% inter: 32.2% 23.9% 8.6%
x264 [info]: i16 v,h,dc,p: 47% 20% 14% 18%
x264 [info]: i4 v,h,dc,ddl,ddr,vr,hd,vl,hu: 31% 15% 17% 7% 6% 7% 5% 7% 5%
x264 [info]: i8c dc,h,v,p: 54% 18% 21% 7%
x264 [info]: ref P L0: 74.3% 25.7%
x264 [info]: kb/s:1346.46




   Похожие торренты   Торрент   Размер 
В этой теме нет новых непрочитанных сообщений. Могила светлячков / Hotaru no haka (1988) DVDRip

36 | 2

1.96 ГБ

В этой теме нет новых непрочитанных сообщений. Могила светлячков / Hotaru no haka (1988) DVD9

0 | 3

5.98 ГБ

В этой теме нет новых непрочитанных сообщений. Могила светлячков / Hotaru no Haka (1988) BDRip от HQCLUB

294 | 17

1.45 ГБ

В этой теме нет новых непрочитанных сообщений. Могила светлячков / Hotaru no haka / Grave of the Fireflies (1988) BDRip от HQ-ViDEO

183 | 35

1.97 ГБ

В этой теме нет новых непрочитанных сообщений. Могила светлячков / Grave of the Fireflies / Hotaru No Haka (1988) BDRip 720p от Leonardo and Scarabey | P, A

92 | 18

4.37 ГБ

В этой теме нет новых непрочитанных сообщений. Могила светлячков / Hotaru no Haka / Grave of the Fireflies (2005) DVDRip | L1

1 | 2

1.29 ГБ

В этой теме нет новых непрочитанных сообщений. Могила девушки / Неоплаканная могила / The Girl's Grave / Mourning Grave (2014) HDRip от CINEMANIA | L2

904 | 75

1.35 ГБ




Вы не можете начинать темы
Вы не можете отвечать на сообщения
Вы не можете редактировать свои сообщения
Вы не можете удалять свои сообщения
Вы не можете добавлять вложения

Перейти:  
Для Мосгорсуда, Роскомнадзора и рекламодателей: mosgorsud-torrent[собачка]yandex.ru
 Вход
ppkBB3cker v.2 © 2008-2014 @ PPK
[ Time : 0.043s | 15 Queries | GZIP : Off ]

Торрент трекер RUTOR.IN, Не можете зайти на rutor.org? Какой новый адрес рутор? Какое зеркало рутор? Не работает rutor.org и зеркала? Тогда наш торрент специально для вас. Rutor.in неофициальное зеркало rutor. В случае если у Вас заблокирован rutor или вдруг Вы не можете на него зайти, то Вы без труда сможете скачать бесплатно и без рекламы последние новинки кино, игр, сериалов и прочего у нас, на Rutor.in. Не нужно использовать прокси, чтобы зайти на рутор, достаточно воспользоваться нашим ресурсом. Все новые фильмы, игры, сериалы, книги и музыка за 2013 и 2014 годы через торрент бесплатно. Скачивайте фильмы в хорошем качестве, игры для пк, xbox, playstation без регистрации. У нас вы найдете новые Зарубежные сериалы и Русские сериалы 2013, 2014, 2015 годов. Оставайтесь с нами, качайте любимые фильмы, игры, сериалы, книги и музыку.