img image001 image001 image001 image001 image001 image001 image001 image001 image001 image001 image001 image001 image001 image001 image001

Planets Sun Sun Sun
Статистика раздачи
Автор: Nickolas3434 | Размер: 1.28 ГБ | Добавлен: 26 фев 2014
Раздают: 135    Качают: 17
Скачать торрент
Скачать торрент
Описание торрента

СообщениеДобавлено: 26 фев 2014 

Сказания Земноморья / Tales from Earthsea / Gedo Senki (2006) HDRip-AVC [480p] | iPhone | D,P2


Название: Сказания Земноморья
Оригинальное название: Gedo Senki
Год выхода: 2006
Жанр: аниме, мультфильм, фэнтези, приключения
Режиссер: Горо Миядзаки
В ролях: Джуничи Окада, Аой Тешима, Бунта Сугавара, Юко Танака, Теруюки Кагава, Джан Фубуки, Такаши Найто, Мицуко Байсё, Юи Нацукава, Каору Кобаяши

О фильме:
Горы, пещеры и замки сказочной страны, драконы и амулеты, заклинания и пророчества, маги и принцы, жрицы и убийцы, злодеи и праведники - в новой приключенческой анимационной фэнтази-саге о волшебном мире Земноморья.
Земноморье в опасности, мир волшебства на грани исчезновения. Вселенское равновесие нарушено: драконы, обитающие в западном пределе сказочной страны, неожиданно появляются на востоке во владениях людей. Верховный маг Гед отправляется на поиски первопричины беды. В пути он встречает Аррена, принца Энлада, который после свершения страшного греха, убийства отца, бежит из родного края, преследуемый тенью.
Прибыв в столицу Земноморья Норт Таун, путники находят пристанище в доме Белой Дамы, бывшей жрицы-хранительницы темных Гробниц Атуана. Верховный Маг Гед открывает Аррену тайны жизни и смерти, правды и лжи. Призывая служить истине с полной самоотдачей, он словно передает эстафету дерзновенному юноше, которому предначертана особая миссия в этом мире. Но успеют ли они противостать силам зла? Или уже слишком поздно...



Страна: Япония
Студия: Buena Vista Home Entertainment, DENTSU Music And Entertainment, GNDHDDT, Studio Ghibli
Продолжительность: 01:55:32
Перевод: Русский дублированный, профессиональный двухголосый закадровый

Файл
Кодек: H.264
Качество: HDRip-AVC 480p | iPhone
Видео: 640x460@851x460 (1.85:1) at 23.976 fps, AVC at 973 kbps
Звук:
1: ААС 2.0 192 kbps - Русский дублированный
2: ААС 2.0 192 kbps - Русский профессиональный двухголосый закадровый (Гланц, Казакова)
3: ААС 2.0 192 kbps - Японский
Субтитры: Русские, Английские

General
Complete name : C:CREATE480outTales from Earthsea.2006 (SD).m4v
Format : MPEG-4
Codec ID : M4V
File size : 1.28 GiB
Duration : 1h 55mn
Overall bit rate mode : Variable
Overall bit rate : 1 587 Kbps
Movie name : Сказания Земноморья
Performer : Goro Miyazaki
Genre : Animation & Adventure & Fantasy
Recorded date : 2010-08-13
Encoded date : UTC 2014-02-25 08:23:46
Tagged date : UTC 2014-02-25 08:55:37
Copyright : © Buena Vista Home Entertainment, DENTSU Music And Entertainment, GNDHDDT
Cover : Yes
Comment : «Грядет время, когда драконы и люди станут едины»
sonm : Gedo senki
desc : Земноморье в опасности, мир волшебства на грани исчезновения. Вселенское равновесие нарушено: драконы, обитающие в западном пределе сказочной страны, неожиданно появляются на востоке во владениях людей.
ldes : Земноморье в опасности, мир волшебства на грани исчезновения. Вселенское равновесие нарушено: драконы, обитающие в западном пределе сказочной страны, неожиданно появляются на востоке во владениях людей. Верховный маг Гед отправляется на поиски первопричины беды. В пути он встречает Аррена, принца Энлада, который после свершения страшного греха, убийства отца, бежит из родного края, преследуемый тенью. Прибыв в столицу Земноморья Норт Таун, путники находят пристанище в доме Белой Дамы, бывшей жрицы-хранительницы темных Гробниц Атуана. Верховный Маг Гед открывает Аррену тайны жизни и смерти, правды и лжи. Призывая служить истине с полной самоотдачей, он словно передает эстафету дерзновенному юноше, которому предначертана особая миссия в этом мире. Но успеют ли они противостать силам зла? Или уже слишком поздно…
stik : 9
rtng : 0
cnID : 259351
xid : Apple:vendor_id:2010-259351
iTunEXTC : mpaa|PG-13|300|

Video #1
ID : 1
Format : AVC
Format/Info : Advanced Video Codec
Format profile : Baseline@L3.0
Format settings, CABAC : No
Format settings, ReFrames : 2 frames
Codec ID : avc1
Codec ID/Info : Advanced Video Coding
Duration : 1h 55mn
Bit rate : 973 Kbps
Maximum bit rate : 7 285 Kbps
Width : 640 pixels
Height : 460 pixels
Display aspect ratio : 1.85:1
Frame rate mode : Constant
Frame rate : 23.976 fps
Color space : YUV
Chroma subsampling : 4:2:0
Bit depth : 8 bits
Scan type : Progressive
Bits/(Pixel*Frame) : 0.138
Stream size : 804 MiB (61%)
Title : Tales from Earthsea _2006_
Writing library : x264 core 140 r2377+40 929f149 tMod [8-bit@4:2:0 X86_64]
Encoding settings : cabac=0 / ref=2 / deblock=1:-1:-1 / analyse=0x1:0x131 / me=umh / subme=7 / psy=1 / fade_compensate=1.00 / psy_rd=0.40:0.15 / mixed_ref=1 / me_range=32 / chroma_me=1 / trellis=2 / 8x8dct=0 / cqm=0 / deadzone=21,11 / fast_pskip=0 / chroma_qp_offset=-3 / threads=12 / lookahead_threads=2 / sliced_threads=0 / nr=0 / decimate=0 / interlaced=0 / bluray_compat=0 / constrained_intra=0 / fgo=0 / bframes=0 / weightp=0 / keyint=250 / keyint_min=23 / scenecut=40 / intra_refresh=0 / rc_lookahead=80 / rc=crf / mbtree=1 / crf=19.5000 / qcomp=0.60 / qpmin=0:0:0 / qpmax=69:69:69 / qpstep=4 / vbv_maxrate=5000 / vbv_bufsize=5000 / crf_max=0.0 / nal_hrd=none / filler=0 / ip_ratio=1.30 / aq=4:0.90 / aq-sensitivity=10.00 / aq-factor=1.00:1.00:1.00 / aq2=0 / aq3=0
Language : Japanese
Encoded date : UTC 2014-02-25 08:23:46
Tagged date : UTC 2014-02-25 08:24:12
Matrix coefficients : BT.709

Video #2
ID : 8
Format : JPEG
Codec ID : jpeg
Duration : 1h 55mn
Bit rate mode : Variable
Bit rate : 1 549 bps
Width : 640 pixels
Height : 345 pixels
Display aspect ratio : 1.85:1
Frame rate mode : Variable
Frame rate : 0.004 fps
Minimum frame rate : 0.002 fps
Maximum frame rate : 0.991 fps
Color space : YUV
Chroma subsampling : 4:2:0
Bit depth : 8 bits
Compression mode : Lossy
Bits/(Pixel*Frame) : 1.754
Stream size : 1.15 MiB (0%)
Language : Japanese
Encoded date : UTC 2014-02-25 08:51:38
Tagged date : UTC 2014-02-25 08:51:38

Audio #1
ID : 2
Format : AAC
Format/Info : Advanced Audio Codec
Format profile : LC
Codec ID : 40
Duration : 1h 55mn
Bit rate mode : Variable
Bit rate : 199 Kbps
Maximum bit rate : 236 Kbps
Channel(s) : 2 channels
Channel positions : Front: L R
Sampling rate : 48.0 KHz
Compression mode : Lossy
Stream size : 164 MiB (13%)
Title : Dub _ R5_ RUSCICO_
Language : Russian
Encoded date : UTC 2014-02-25 08:13:47
Tagged date : UTC 2014-02-25 08:24:12

Audio #2
ID : 3
Format : AAC
Format/Info : Advanced Audio Codec
Format profile : LC
Codec ID : 40
Duration : 1h 55mn
Bit rate mode : Variable
Bit rate : 202 Kbps
Maximum bit rate : 251 Kbps
Channel(s) : 2 channels
Channel positions : Front: L R
Sampling rate : 48.0 KHz
Compression mode : Lossy
Stream size : 167 MiB (13%)
Title : DVO _Glanz _ Kazakova_
Language : Russian
Encoded date : UTC 2014-02-25 08:17:40
Tagged date : UTC 2014-02-25 08:24:12

Audio #3
ID : 4
Format : AAC
Format/Info : Advanced Audio Codec
Format profile : LC
Codec ID : 40
Duration : 1h 55mn
Bit rate mode : Variable
Bit rate : 206 Kbps
Maximum bit rate : 247 Kbps
Channel(s) : 2 channels
Channel positions : Front: L R
Sampling rate : 48.0 KHz
Compression mode : Lossy
Stream size : 170 MiB (13%)
Title : Original
Language : Japanese
Encoded date : UTC 2014-02-25 08:21:33
Tagged date : UTC 2014-02-25 08:24:12

Text #1
ID : 5
Format : Timed Text
Muxing mode : sbtl
Codec ID : tx3g
Duration : 1h 49mn
Bit rate mode : Variable
Bit rate : 54 bps
Stream size : 43.4 KiB (0%)
Title : RUSCICO
Language : Russian
Encoded date : UTC 2014-02-25 08:24:12
Tagged date : UTC 2014-02-25 08:24:12

Text #2
ID : 6
Format : Timed Text
Muxing mode : sbtl
Codec ID : tx3g
Duration : 1h 55mn
Bit rate mode : Variable
Bit rate : 40 bps
Stream size : 34.0 KiB (0%)
Title : SRT
Language : English
Encoded date : UTC 2014-02-25 08:24:12
Tagged date : UTC 2014-02-25 08:24:12

Menu
ID : 7
Codec ID : text
Duration : 1h 55mn
Language : Japanese
Encoded date : UTC 2014-02-25 08:25:28
Tagged date : UTC 2014-02-25 08:25:28
Bit rate mode : CBR
Sort Name: Gedo senki
XID: Apple:vendor_id:2010-259351
contentID: 259351
Copyright: © Buena Vista Home Entertainment, DENTSU Music And Entertainment, GNDHDDT
Screenwriters: Горо Миядзаки, Кейко Нива, Хаяо Миядзаки
Producers: Стив Элперт, Хавьер Понтон, Тосио Судзуки
Director: Горо Миядзаки
Cast: Джуничи Окада, Аой Тешима, Бунта Сугавара, Юко Танака, Теруюки Кагава, Джан Фубуки, Такаши Найто, Мицуко Байсё, Юи Нацукава, Каору Кобаяси
Studio: © Buena Vista Home Entertainment, DENTSU Music And Entertainment, GNDHDDT
Rating: 4
Long Deion: Земноморье в опасности, мир волшебства на грани исчезновения. Вселенское равновесие нарушено: драконы, обитающие в западном пределе сказочной страны, неожиданно появляются на востоке во владениях людей. Верховный маг Гед отправляется на поиски первопричины беды. В пути он встречает Аррена, принца Энлада, который после свершения страшного греха, убийства отца, бежит из родного края, преследуемый тенью. Прибыв в столицу Земноморья Норт Таун, путники находят пристанище в доме Белой Дамы, бывшей жрицы-хранительницы темных Гробниц Атуана. Верховный Маг Гед открывает Аррену тайны жизни и смерти, правды и лжи. Призывая служить истине с полной самоотдачей, он словно передает эстафету дерзновенному юноше, которому предначертана особая миссия в этом мире. Но успеют ли они противостать силам зла? Или уже слишком поздно…
Deion: Земноморье в опасности, мир волшебства на грани исчезновения. Вселенское равновесие нарушено: драконы, обитающие в западном пределе сказочной страны, неожиданно появляются на востоке во владениях людей.
Release Date: 2010-08-13
Genre: Animation & Adventure & Fantasy
Comments: «Грядет время, когда драконы и люди станут едины»
Artist: Goro Miyazaki
Name: Сказания Земноморья
x264 [info]: frame I:1944 Avg QP:18.22 size: 29475
x264 [info]: frame P:164276 Avg QP:20.82 size: 4782
x264 [info]: mb I I16..4: 42.1% 0.0% 57.9%
x264 [info]: mb P I16..4: 1.3% 0.0% 0.7% P16..4: 47.2% 8.1% 4.2% 0.8% 0.4% skip:37.1%
x264 [info]: coded y,uvDC,uvAC intra: 40.3% 59.6% 35.3% inter: 20.0% 20.0% 7.4%
x264 [info]: i16 v,h,dc,p: 56% 18% 11% 15%
x264 [info]: i4 v,h,dc,ddl,ddr,vr,hd,vl,hu: 28% 16% 20% 7% 6% 6% 5% 7% 5%
x264 [info]: i8c dc,h,v,p: 59% 16% 19% 6%
x264 [info]: ref P L0: 71.1% 28.9%
x264 [info]: kb/s:972.57




   Похожие торренты   Торрент   Размер 
В этой теме нет новых непрочитанных сообщений. Сказания Земноморья / Gedo Senki - Tales from Earthsea (2006) BDRip 720p от HELLYWOOD | D

139 | 17

4.37 ГБ

В этой теме нет новых непрочитанных сообщений. Сказания Земноморья / Tales from Earthsea (2006) BDRip 1080p от NNNB

1844 | 43

5.75 ГБ

В этой теме нет новых непрочитанных сообщений. Волшебник Земноморья / Earthsea (2004) DVDRip

159 | 13

1.46 ГБ

В этой теме нет новых непрочитанных сообщений. Волшебник Земноморья / Earthsea (2004) DVDRip | КПК от Generalfilm

34 | 4

744.43 МБ

В этой теме нет новых непрочитанных сообщений. Тор: Сказания Асгарда / Thor: Tales of Asgard (2011) HDRip | Лицензия

39 | 4

1.37 ГБ

В этой теме нет новых непрочитанных сообщений. Тор: Сказания Асгарда / Thor: Tales of Asgard (2011) HDRip | Лицензия

4 | 10

693.29 МБ

В этой теме нет новых непрочитанных сообщений. Сказания Зестирии: Крест / Tales of Zestiria: The X [01-13 из 13] (2016) HDTVRip 720p

2 | 3

5.75 ГБ




Вы не можете начинать темы
Вы не можете отвечать на сообщения
Вы не можете редактировать свои сообщения
Вы не можете удалять свои сообщения
Вы не можете добавлять вложения

Перейти:  
Для Мосгорсуда, Роскомнадзора и рекламодателей: mosgorsud-torrent[собачка]yandex.ru
 Вход
ppkBB3cker v.2 © 2008-2014 @ PPK
[ Time : 0.022s | 15 Queries | GZIP : Off ]

Торрент трекер RUTOR.IN, Не можете зайти на rutor.org? Какой новый адрес рутор? Какое зеркало рутор? Не работает rutor.org и зеркала? Тогда наш торрент специально для вас. Rutor.in неофициальное зеркало rutor. В случае если у Вас заблокирован rutor или вдруг Вы не можете на него зайти, то Вы без труда сможете скачать бесплатно и без рекламы последние новинки кино, игр, сериалов и прочего у нас, на Rutor.in. Не нужно использовать прокси, чтобы зайти на рутор, достаточно воспользоваться нашим ресурсом. Все новые фильмы, игры, сериалы, книги и музыка за 2013 и 2014 годы через торрент бесплатно. Скачивайте фильмы в хорошем качестве, игры для пк, xbox, playstation без регистрации. У нас вы найдете новые Зарубежные сериалы и Русские сериалы 2013, 2014, 2015 годов. Оставайтесь с нами, качайте любимые фильмы, игры, сериалы, книги и музыку.