img image001 image001 image001 image001 image001 image001 image001 image001 image001 image001 image001 image001 image001 image001 image001

Planets Sun Sun Sun
Статистика раздачи
Автор: Nickolas3434 | Размер: 1.99 ГБ | Добавлен: 28 фев 2014, 00:04
Раздают: 136    Качают: 4
Скачать торрент
Скачать торрент
Описание торрента

СообщениеДобавлено: 28 фев 2014, 00:04 

Информация о фильме

Название : Многоцветье / Красочный
Оригинальное название : Karafuru / Colorful / カラフル
Год выхода : 2010
Жанр : драма, повседневность, мистика
Режиссер : Кейити Хара
Роли озвучивали : Кумико Асо, Кейдзи Фудзивара, Дзинги Ириэ, Майкл, Акина Минами, Аои Миядзаки, Акиёши Накао, Кацуми Такахаси, Казато Томидзава

Описание : Он неважно жил и плохо умер, совершив тяжкий грех. Но пути Небес неисповедимы – ему дали шанс временно вселиться в тело мальчика-самоубийцы и сотворить хоть что-то хорошее, частично искупить вину и улучшить карму. Теперь он – 14-летний Макото Кобаяси, живущий с отцом, матерью и старшим братом, типичный подросток в возрасте бунта и непонимания. Небесный куратор по имени Пурапура доходчиво разъяснил, зачем его вернули с порога Небытия – надо раскаяться, вспомнить прошлые ошибки, а по ходу дела вправить мозги Макото, чтобы не думал впредь глотать таблетки. Задачи ясны? А дальше сам!

Почему люди не могут жить в согласии, лгут, озлобляются, творят вещи, немыслимые даже для диких зверей? До пропащей души в теле мальчика постепенно стал доходить ответ – потому что все мы разные, а лень, страх или предрассудки не дают понять друг друга. Многоцветье людей, характеров, мнений – это прекрасно, именно так устроена жизнь. Кто способен принять многоцветье и стать его частью – тот и есть настоящий живой человек. А остальное расскажет сам фильм!



Страна : Япония
Производство : Aniplex, Ascension, Dentsu, Fuji Television Network Inc., Sony Music Entertainment, Sunrise Inc., Toho Company
Продолжительность : 02:06:29
Перевод : Любительскеий (Многоголосый, закадровый)
Русские субтитры : есть
Перевод:
Перевод на русский: Exmel
Редакция : Amarillis и Yuliii
Русский текст песен : AlenFuns

Русские субтитры: Dreamers Team & RG Genshiken

Работа со звуком : Dark Man (спасибо за русскую озвучку)

Озвучка:
- трехголосая: Eladiel, Jam & Sahawk
Автор рипа и релиза :

Файл
Формат видео : AVI
Качество : BDRip ([Yousei-raws] Colorful [BDrip 1920x1080 x264 FLAC])

Видео: XviD, 720x400 (16:9), 1475 Кбит/с, 25.0 fps
Аудио 1: Русский, AC3, 384 Кбит/с, 48.0 Hz, 6 ch (в составе контейнера)
Аудио 2: Японский, AC3, 384 Кбит/с, 48.0 Hz, 6 ch (в составе контейнера)
Субтитры (srt): Русские, Английские (внешним файлом)









General
Complete name : E:/Torrent_2/Colorful (2010, XviD BDRip, AC3+SUB) [Stranik 2.0]/Colorful (2010, XviD BDRip, AC3+SUB) [Stranik 2.0].avi
Format : AVI
Format/Info : Audio Video Interleave
Format profile : OpenDML
File size : 1.99 GiB
Duration : 2h 6mn
Overall bit rate : 2 250 Kbps
Writing application : AVI-Mux GUI 1.17.8, Aug 30 2008 12:36:58

Video #0
ID : 0
Format : xvid
Codec ID : xvid
Duration : 2h 6mn
Bit rate : 1 475 Kbps
Width : 720 pixels
Height : 400 pixels
Display aspect ratio : 16:9
Frame rate : 25.000 fps
Bits/(Pixel*Frame) : 0.205
Stream size : 1.30 GiB (66%)

Audio #1
ID : 1
Format : AC-3
Format/Info : Audio Coding 3
Mode extension : CM (complete main)
Codec ID : 2000
Duration : 2h 6mn
Bit rate mode : Constant
Bit rate : 384 Kbps
Channel(s) : 6 channels
Channel positions : Front: L C R, Side: L R, LFE
Sampling rate : 48.0 KHz
Bit depth : 16 bits
Compression mode : Lossy
Stream size : 347 MiB (17%)
Alignment : Aligned on interleaves
Interleave, duration : 64 ms (1.60 video frames)
Interleave, preload duration : 192 ms
Title : RUS [Eladiel, Jam & Sahawk]

Audio #2
ID : 2
Format : AC-3
Format/Info : Audio Coding 3
Mode extension : CM (complete main)
Codec ID : 2000
Duration : 2h 6mn
Bit rate mode : Constant
Bit rate : 384 Kbps
Channel(s) : 6 channels
Channel positions : Front: L C R, Side: L R, LFE
Sampling rate : 48.0 KHz
Bit depth : 16 bits
Compression mode : Lossy
Stream size : 347 MiB (17%)
Alignment : Aligned on interleaves
Interleave, duration : 64 ms (1.60 video frames)
Interleave, preload duration : 192 ms
Title : JAP [Original]









   Похожие торренты   Торрент   Размер 
В этой теме нет новых непрочитанных сообщений. OST - Многоцветье / Colorful / Karafuru (2010-2011) MP3

1 | 5

162.3 МБ

В этой теме нет новых непрочитанных сообщений. Буквоежка / Литературная барышня / Gekijouban Bungaku Shoujo / Book Girl (2010) BDRip от Stranik 2.0 | D | Лицензия

18 | 14

1.92 ГБ

В этой теме нет новых непрочитанных сообщений. Стич! / Stitch! Best Friends Forever [S03x01-04, 08, 22, 24-30 из 30] (2010) TVRip от Stranik 2.0 | D

4 | 7

3.85 ГБ

В этой теме нет новых непрочитанных сообщений. Стич! / Stitch! Best Friends Forever [S03x01-04, 08, 22, 24-29 из 30] (2010) TVRip от Stranik 2.0 | D

10 | 6

3.51 ГБ

В этой теме нет новых непрочитанных сообщений. АКБ0048 / AKB0048 [s01] (2012) BDRip от Stranik 2.0 | L1

4 | 5

4.36 ГБ

В этой теме нет новых непрочитанных сообщений. АКБ0048 / AKB0048 Next Stage [s02] (2013) BDRip от Stranik 2.0 | L1

5 | 5

4.28 ГБ

В этой теме нет новых непрочитанных сообщений. Метрополис / Metoroporisu / Metropolis (2001) BDRip от Stranik 2.0 | D

64 | 34

1.97 ГБ




Вы не можете начинать темы
Вы не можете отвечать на сообщения
Вы не можете редактировать свои сообщения
Вы не можете удалять свои сообщения
Вы не можете добавлять вложения

Перейти:  
Для Мосгорсуда, Роскомнадзора и рекламодателей: mosgorsud-torrent[собачка]yandex.ru
Настройки
ppkBB3cker v.2 © 2008-2014 @ PPK
[ Time : 0.029s | 16 Queries | GZIP : Off ]
CGP [Extreme] output time : 0.00018s | 0 Queries | GZIP : Off

Торрент трекер RUTOR.IN, Не можете зайти на rutor.org? Какой новый адрес рутор? Какое зеркало рутор? Не работает rutor.org и зеркала? Тогда наш торрент специально для вас. Rutor.in неофициальное зеркало rutor. В случае если у Вас заблокирован rutor или вдруг Вы не можете на него зайти, то Вы без труда сможете скачать бесплатно и без рекламы последние новинки кино, игр, сериалов и прочего у нас, на Rutor.in. Не нужно использовать прокси, чтобы зайти на рутор, достаточно воспользоваться нашим ресурсом. Все новые фильмы, игры, сериалы, книги и музыка за 2013 и 2014 годы через торрент бесплатно. Скачивайте фильмы в хорошем качестве, игры для пк, xbox, playstation без регистрации. У нас вы найдете новые Зарубежные сериалы и Русские сериалы 2013, 2014, 2015 годов. Оставайтесь с нами, качайте любимые фильмы, игры, сериалы, книги и музыку.