img image001 image001 image001 image001 image001 image001 image001 image001 image001 image001 image001 image001 image001 image001 image001

Planets Sun Sun Sun
Статистика раздачи
Автор: Nickolas3434 | Размер: 1.46 ГБ | Добавлен: 01 мар 2014
Раздают: 15    Качают: 9
Скачать торрент
Скачать торрент
Описание торрента

СообщениеДобавлено: 01 мар 2014 

Информация о фильме

Название : Ещё вчера
Оригинальное название : Only Yesterday / Omoide Poro-poro / おもひでぽろぽろ
Год выхода : 1991
Жанр : Романтика, драма, школа
Режиссер : Такахата Исао
Роли озвучивали : Мики Имаи, Тоширо Янагиба, Ёко Хонна, Маюми Иидзука, Масахиро Ито, Чие Китагава, Ёшимаса Кондо, Юки Масуда, Юки Минова, Кацуо Такахаси

Описание : Япония восьмидесятых годов прошлого века. Таэко - одинокая молодая женщина из Токио, типичная служащая в крупной компании, вертящаяся в бешеном ритме столичной жизни. Когда она отправилась в отпуск на ферму своей старшей замужней сестры, переехавшей к мужу в сельскую глубинку, и погрузилась в неспешные деревенские будни, на Таэко нахлынула волна ярких воспоминаний о школьной юности конца шестидесятых, казалось, давно стёртых в памяти. С удовольствием работая в поле на фоне чудесной природы в окружении доброжелательных фермеров, она то и дело переносится в то счастливое время, когда жизнь казалась простой и понятной. Тёплые воспоминания детской рукой словно направляют Таэко, помогая ей принять трудные и важные решения о её будущем...



Страна : Япония
Производство : Studio Ghibli
Продолжительность : 01:58:48
Перевод : Профессиональный (Многоголосый, закадровый) RUSCICO
Русские субтитры : есть
Автор рипа и релиза :

Файл
Формат видео : AVI
Качество : BDRip (Only yesterday (1991))

Видео: XviD, 720x384 (1.875), 1369 Кбит/с, 23.976 fps
Аудио 1: Русский, AC3, 192 Кбит/с, 48.0 Hz, 2 ch (в составе контейнера)
Аудио 2: Японский, AC3, 192 Кбит/с, 48.0 Hz, 2 ch (в составе контейнера)
Субтитры (srt): Русские [RUSCICO], Английские (внешним файлом)









General
Complete name : E:/Torrent_2/Only yesterday (1991, XviD BDRip, AC3+SUB) [Stranik 2.0]/Only yesterday (1991, XviD BDRip, AC3+SUB) [Stranik 2.0].avi
Format : AVI
Format/Info : Audio Video Interleave
Format profile : OpenDML
File size : 1.46 GiB
Duration : 1h 58mn
Overall bit rate : 1 760 Kbps
Writing application : AVI-Mux GUI 1.17.8, Aug 30 2008 12:36:58

Video #0
ID : 0
Format : MPEG-4 Visual
Format profile : Advanced Simple@L5
Format settings, BVOP : Yes
Format settings, QPel : No
Format settings, GMC : No warppoints
Format settings, Matrix : Default (H.263)
Codec ID : XVID
Codec ID/Hint : XviD
Duration : 1h 58mn
Bit rate : 1 369 Kbps
Width : 720 pixels
Height : 384 pixels
Display aspect ratio : 1.875
Frame rate : 23.976 fps
Color space : YUV
Chroma subsampling : 4:2:0
Bit depth : 8 bits
Scan type : Progressive
Compression mode : Lossy
Bits/(Pixel*Frame) : 0.207
Stream size : 1.14 GiB (78%)
Writing library : XviD 1.2.1 (UTC 2008-12-04)

Audio #1
ID : 1
Format : AC-3
Format/Info : Audio Coding 3
Mode extension : CM (complete main)
Codec ID : 2000
Duration : 1h 58mn
Bit rate mode : Constant
Bit rate : 192 Kbps
Channel(s) : 2 channels
Channel positions : Front: L R
Sampling rate : 48.0 KHz
Bit depth : 16 bits
Compression mode : Lossy
Stream size : 163 MiB (11%)
Alignment : Aligned on interleaves
Interleave, duration : 64 ms (1.53 video frames)
Interleave, preload duration : 192 ms
Title : Rus_MVO RUSCICO

Audio #2
ID : 2
Format : AC-3
Format/Info : Audio Coding 3
Mode extension : CM (complete main)
Codec ID : 2000
Duration : 1h 58mn
Bit rate mode : Constant
Bit rate : 192 Kbps
Channel(s) : 2 channels
Channel positions : Front: L R
Sampling rate : 48.0 KHz
Bit depth : 16 bits
Compression mode : Lossy
Stream size : 163 MiB (11%)
Alignment : Aligned on interleaves
Interleave, duration : 64 ms (1.53 video frames)
Interleave, preload duration : 192 ms
Title : Jap_Original






   Похожие торренты   Торрент   Размер 
В этой теме нет новых непрочитанных сообщений. Ещё вчера / Only Yesterday / Omohide poro poro (1991) BDRip от HQCLUB

39 | 4

2.18 ГБ

В этой теме нет новых непрочитанных сообщений. Ещё вчера / Сочащиеся воспоминания / Only Yesterday / Omohide Poro Poro (1991) DVDRip

3 | 2

1.37 ГБ

В этой теме нет новых непрочитанных сообщений. Ещё вчера / Omohide poro poro (1991) BDRip 1080p от NNNB

15 | 5

7.75 ГБ

В этой теме нет новых непрочитанных сообщений. Вспоминая Марни / Omoide no Marnie / When Marnie Was There (2014) BDRip от Stranik 2.0 | L1

48 | 40

1.94 ГБ

В этой теме нет новых непрочитанных сообщений. Уроки любви / Не вчера родилась / Born Yesterday (1993) BDRip от HQCLUB

50 | 2

2.18 ГБ

В этой теме нет новых непрочитанных сообщений. Вчера, сегодня, завтра / Ieri, oggi, domani / Yesterday, Today and Tomorrow (1963) BDRip-AVC от 0ptimus

24 | 7

3.19 ГБ

В этой теме нет новых непрочитанных сообщений. Вчера, сегодня, завтра / Yesterday, Today and Tomorrow / Ieri, oggi, domani (1963) BDRip от HQCLUB

15 | 3

2.18 ГБ




Вы не можете начинать темы
Вы не можете отвечать на сообщения
Вы не можете редактировать свои сообщения
Вы не можете удалять свои сообщения
Вы не можете добавлять вложения

Перейти:  
Для Мосгорсуда, Роскомнадзора и рекламодателей: mosgorsud-torrent[собачка]yandex.ru
 Вход
ppkBB3cker v.2 © 2008-2014 @ PPK
[ Time : 0.866s | 16 Queries | GZIP : Off ]

Торрент трекер RUTOR.IN, Не можете зайти на rutor.org? Какой новый адрес рутор? Какое зеркало рутор? Не работает rutor.org и зеркала? Тогда наш торрент специально для вас. Rutor.in неофициальное зеркало rutor. В случае если у Вас заблокирован rutor или вдруг Вы не можете на него зайти, то Вы без труда сможете скачать бесплатно и без рекламы последние новинки кино, игр, сериалов и прочего у нас, на Rutor.in. Не нужно использовать прокси, чтобы зайти на рутор, достаточно воспользоваться нашим ресурсом. Все новые фильмы, игры, сериалы, книги и музыка за 2013 и 2014 годы через торрент бесплатно. Скачивайте фильмы в хорошем качестве, игры для пк, xbox, playstation без регистрации. У нас вы найдете новые Зарубежные сериалы и Русские сериалы 2013, 2014, 2015 годов. Оставайтесь с нами, качайте любимые фильмы, игры, сериалы, книги и музыку.
cron