img image001 image001 image001 image001 image001 image001 image001 image001 image001 image001 image001 image001 image001 image001 image001

Planets Sun Sun Sun
Статистика раздачи
Автор: Nickolas3434 | Размер: 6.06 ГБ | Добавлен: 05 мар 2014
Раздают: 19    Качают: 3
Скачать торрент
Скачать торрент
Описание торрента

СообщениеДобавлено: 05 мар 2014 

►Информация об аниме:

⇒Русское название: Золотая Пора
⇒Оригинальное название: Golden Time

⇒Производство: Япония
⇒Жанр: комедия, романтика
⇒Тип: ТВ (>24 эп.), 25 мин.
⇒Выпуск: c 04.10.2013
⇒Трансляция в 02:35 [ночной сеанс] на MBS

⇒Режиссёр: Кон Тиаки
⇒Автор оригинала: Такэмия Ююко
⇒Студия: J.C. Staff

►Описание:

Тада Банри – свежеиспечённый первокурсник одного Токийского университета – умудрился заблудиться сразу же после окончания торжественной линейки. И вот, попутно проклиная всё на свете, юноша столкнулся с Янагисавой Мицуо. Товарищи по несчастью быстро нашли общий язык... Но кто бы мог подумать! У ворот ВУЗ-а их встретила писанная красавица, которая тут же поздравила Мицуо весьма оригинальным способом — букетом роз по лицу!

►Файл:
⇒Качество: HDTV 720p
⇒Контейнер: Mp4
⇒Видео: x264; 1280x720; 23.976fps; ~1500 kbps
⇒Аудио: Rus - Aac; 48.0 khz; 2.0ch; 192 kbp

⇒Озвучивание: Ancord & JAM & Nika Lenina (Любительский многоголосый закадровый)
⇒Перевод: Jeka
⇒Тайминг: n_e_o

General
Complete name : C:[AniDub]_Golden_Time_[Ancord_JAM_NikaLenina][AniDub]_Golden_Time_[02]_[720p_x264_Aac]_[Ancord_JAM_NikaLenina].mp4
Format : MPEG-4
Format profile : Base Media
Codec ID : isom
File size : 328 MiB
Duration : 23mn 51s
Overall bit rate : 1 919 Kbps
Encoded date : UTC 2013-10-21 20:11:11
Tagged date : UTC 2013-10-21 20:11:11
Writing application : Yamb 2.1.0.0 [http://yamb.unite-video.com]

Video
ID : 1
Format : AVC
Format/Info : Advanced Video Codec
Format profile : Baseline@L3.1
Format settings, CABAC : No
Format settings, ReFrames : 3 frames
Codec ID : avc1
Codec ID/Info : Advanced Video Coding
Duration : 23mn 51s
Bit rate mode : Variable
Bit rate : 1 724 Kbps
Maximum bit rate : 8 490 Kbps
Width : 1 280 pixels
Height : 720 pixels
Display aspect ratio : 16:9
Frame rate mode : Constant
Frame rate : 23.976 fps
Standard : NTSC
Color space : YUV
Chroma subsampling : 4:2:0
Bit depth : 8 bits
Scan type : Progressive
Bits/(Pixel*Frame) : 0.078
Stream size : 294 MiB (90%)
Language : English
Encoded date : UTC 2013-10-11 22:55:07
Tagged date : UTC 2013-10-21 20:11:26

Audio
ID : 2
Format : AAC
Format/Info : Advanced Audio Codec
Format version : Version 4
Format profile : LC
Format settings, SBR : No
Codec ID : 40
Duration : 23mn 51s
Bit rate mode : Variable
Bit rate : 192 Kbps
Maximum bit rate : 196 Kbps
Channel(s) : 2 channels
Channel positions : Front: L R
Sampling rate : 48.0 KHz
Stream size : 32.8 MiB (10%)
Language : Russian
Encoded date : UTC 2013-10-21 20:11:16
Tagged date : UTC 2013-10-21 20:11:26









   Похожие торренты   Торрент   Размер 
В этой теме нет новых непрочитанных сообщений. Золотая Пора / Golden Time [01-06 из 24] (2013) HDTV 720p | L

5 | 5

1.93 ГБ

В этой теме нет новых непрочитанных сообщений. Золотая Пора / Golden Time [01-03 из 24] (2013) HDTV 720p | L

0 | 2

1003.16 МБ

В этой теме нет новых непрочитанных сообщений. Золотая Пора / Golden Time [01-22 из 24] (2013) HDTV 720p | L

3 | 21

7.01 ГБ

В этой теме нет новых непрочитанных сообщений. Золотая Пора / Golden Time [01-24 из 24] (2013) HDTV 720p | AniDub

66 | 54

7.65 ГБ

В этой теме нет новых непрочитанных сообщений. Золотое Время / Golden Time [TV] [01-24 из 24] (2013) HDTVRip 720p | AniFilm

112 | 78

6.98 ГБ

В этой теме нет новых непрочитанных сообщений. Золотое Время / Golden Time [TV] [01-18 из 24] (2013) HDTVRip 720p | AniFilm

76 | 40

5.31 ГБ

В этой теме нет новых непрочитанных сообщений. Золотое Время / Golden Time [TV] [01-21 из 24] (2013) HDTVRip 720p | AniFilm

46 | 45

6.14 ГБ




Вы не можете начинать темы
Вы не можете отвечать на сообщения
Вы не можете редактировать свои сообщения
Вы не можете удалять свои сообщения
Вы не можете добавлять вложения

Перейти:  
Для Мосгорсуда, Роскомнадзора и рекламодателей: mosgorsud-torrent[собачка]yandex.ru
 Вход
ppkBB3cker v.2 © 2008-2014 @ PPK
[ Time : 0.035s | 15 Queries | GZIP : On ]

Торрент трекер RUTOR.IN, Не можете зайти на rutor.org? Какой новый адрес рутор? Какое зеркало рутор? Не работает rutor.org и зеркала? Тогда наш торрент специально для вас. Rutor.in неофициальное зеркало rutor. В случае если у Вас заблокирован rutor или вдруг Вы не можете на него зайти, то Вы без труда сможете скачать бесплатно и без рекламы последние новинки кино, игр, сериалов и прочего у нас, на Rutor.in. Не нужно использовать прокси, чтобы зайти на рутор, достаточно воспользоваться нашим ресурсом. Все новые фильмы, игры, сериалы, книги и музыка за 2013 и 2014 годы через торрент бесплатно. Скачивайте фильмы в хорошем качестве, игры для пк, xbox, playstation без регистрации. У нас вы найдете новые Зарубежные сериалы и Русские сериалы 2013, 2014, 2015 годов. Оставайтесь с нами, качайте любимые фильмы, игры, сериалы, книги и музыку.