img image001 image001 image001 image001 image001 image001 image001 image001 image001 image001 image001 image001 image001 image001 image001

Planets Sun Sun Sun
Статистика раздачи
Автор: Nickolas3434 | Размер: 1.63 ГБ | Добавлен: 31 мар 2014
Раздают: 95    Качают: 18
Скачать торрент
Скачать торрент
Описание торрента

СообщениеДобавлено: 31 мар 2014 

Информация о фильме:

Оригинальное название: Bayonetta: Bloody Fate
Русское название: Байонетта: Кровавая судьба

Страна: Япония
Продолжительность: 01:30:11
Год выпуска: 23.11.2013
Жанр: приключения, этти, мистика
Студия: GONZO
Режиссёр: Кидзаки Фуминори
Сценарий: Хирота Мицутака

Описание:
Байонетта - сногсшибательно красивая ведьмочка, которая одинаково ловко управляется как со сверхъестественными силами, так и с огнестрельным оружием. И то, и другое потребуется героине в полной мере, потому что ей в одиночку предстоит столкнуться с легионом ангельских воинов. Когда загрохочут выстрелы и взревут первые поверженные враги, времени на раздумья и передышки уже не останется. Bayonetta - это непрерывное стремительное действие, водоворот страстей и ураган сражений.
Контейнер: Mp4
Видео: x264; 1280x720; 23.976fps; ~2000 kbps
Аудио1: Rus - Aac; 48.0 khz; 2.0ch; 192kbps

Озвучивание: Trina_D & Oriko & Ancord & BalFor & Jam & Cuba77
Перевод на русский: FooBoo
Тайминг: Cанрайз и другие добрые дяди
PS: Экранизация первой части одноименного слешера от Платинум геймс! Убойная полнометражка для всех поклонников барышни с чупиком скрасит ожидание второй части игры!



General
Complete name : C:[AniDub]_BAYONETTA_Bloody_Fate_[Movie]_[720p].mp4
Format : MPEG-4
Format profile : Base Media
Codec ID : isom
File size : 1.63 GiB
Duration : 1h 30mn
Overall bit rate : 2 580 Kbps
Encoded date : UTC 2014-02-22 23:03:51
Tagged date : UTC 2014-02-22 23:03:51
Writing application : Yamb 2.1.0.0 [http://yamb.unite-video.com]

Video
ID : 1
Format : AVC
Format/Info : Advanced Video Codec
Format profile : High@L4.0
Format settings, CABAC : Yes
Format settings, ReFrames : 6 frames
Codec ID : avc1
Codec ID/Info : Advanced Video Coding
Duration : 1h 30mn
Bit rate mode : Variable
Bit rate : 2 384 Kbps
Maximum bit rate : 33.3 Mbps
Width : 1 280 pixels
Height : 720 pixels
Display aspect ratio : 16:9
Frame rate mode : Constant
Frame rate : 23.976 fps
Color space : YUV
Chroma subsampling : 4:2:0
Bit depth : 8 bits
Scan type : Progressive
Bits/(Pixel*Frame) : 0.108
Stream size : 1.50 GiB (92%)
Title : Video
Encoded date : UTC 2014-02-18 07:51:50
Tagged date : UTC 2014-02-22 23:05:34

Audio
ID : 2
Format : AAC
Format/Info : Advanced Audio Codec
Format version : Version 4
Format profile : LC
Format settings, SBR : No
Codec ID : 40
Duration : 1h 30mn
Bit rate mode : Variable
Bit rate : 192 Kbps
Maximum bit rate : 197 Kbps
Channel(s) : 2 channels
Channel positions : Front: L R
Sampling rate : 48.0 KHz
Stream size : 124 MiB (7%)
Language : English
Encoded date : UTC 2014-02-22 23:05:13
Tagged date : UTC 2014-02-22 23:05:34



   Похожие торренты   Торрент   Размер 
В этой теме нет новых непрочитанных сообщений. Байонетта: Кровавая судьба / Bayonetta: Bloody Fate (2013) BDRip 720p

120 | 39

1.63 ГБ

В этой теме нет новых непрочитанных сообщений. Байонетта: Кровавая судьба / Bayonetta: Bloody Fate (2013) BDRip 720p | LE-Production

56 | 66

2.38 ГБ

В этой теме нет новых непрочитанных сообщений. Байонетта: Кровавая судьба / Bayonetta: Bloody Fate [Movie] (2013) BDRip 1080p | L

166 | 19

3.74 ГБ

В этой теме нет новых непрочитанных сообщений. Кровавая луна / Die Säge des Todes / Bloody moon (1981) 720p BDRip

28 | 29

4.79 ГБ

В этой теме нет новых непрочитанных сообщений. Судьба. Ночь Прибытия / Fate. Stay Night [01-24 из 24] (2006) BDRip 720p

5 | 38

15.52 ГБ

В этой теме нет новых непрочитанных сообщений. Судьба: Девочка-волшебница Илия / Fate Kaleid Liner Prisma Illya [01-04 из 10] (2013) HDTV 720p | L2

0 | 2

1.39 ГБ

В этой теме нет новых непрочитанных сообщений. Судьба: Ночь Схватки / Gekijouban Fate/Stay Night: Unlimited Blade Works (2010) BDRip 720p | AniFilm

96 | 13

4.94 ГБ




Вы не можете начинать темы
Вы не можете отвечать на сообщения
Вы не можете редактировать свои сообщения
Вы не можете удалять свои сообщения
Вы не можете добавлять вложения

Перейти:  
Для Мосгорсуда, Роскомнадзора и рекламодателей: mosgorsud-torrent[собачка]yandex.ru
 Вход
ppkBB3cker v.2 © 2008-2014 @ PPK
[ Time : 0.541s | 18 Queries | GZIP : Off ]
CGP output time : 0.009s | 5 Queries | GZIP : Off

Торрент трекер RUTOR.IN, Не можете зайти на rutor.org? Какой новый адрес рутор? Какое зеркало рутор? Не работает rutor.org и зеркала? Тогда наш торрент специально для вас. Rutor.in неофициальное зеркало rutor. В случае если у Вас заблокирован rutor или вдруг Вы не можете на него зайти, то Вы без труда сможете скачать бесплатно и без рекламы последние новинки кино, игр, сериалов и прочего у нас, на Rutor.in. Не нужно использовать прокси, чтобы зайти на рутор, достаточно воспользоваться нашим ресурсом. Все новые фильмы, игры, сериалы, книги и музыка за 2013 и 2014 годы через торрент бесплатно. Скачивайте фильмы в хорошем качестве, игры для пк, xbox, playstation без регистрации. У нас вы найдете новые Зарубежные сериалы и Русские сериалы 2013, 2014, 2015 годов. Оставайтесь с нами, качайте любимые фильмы, игры, сериалы, книги и музыку.