img image001 image001 image001 image001 image001 image001 image001 image001 image001 image001 image001 image001 image001 image001 image001

Planets Sun Sun Sun
Статистика раздачи
Автор: Nickolas3434 | Размер: 1.46 ГБ | Добавлен: 01 апр 2014
Раздают: 71    Качают: 20
Скачать торрент
Скачать торрент
Описание торрента

СообщениеДобавлено: 01 апр 2014 

Информация о фильме

Название : Порко Россо
Оригинальное название : Kurenai no Buta / Porco Rosso / 紅の豚
Год выхода : 1992
Жанр : Приключения, история, комедия
Режиссер : Миядзаки Хаяо
Роли озвучивали : Сюитиро Морияма, Токико Като, Санси Кацура, Грег Эллис, Цунэхико Камидзё, Акэми Окамура, Акио Ютсука, Хироко Сэки, Джек Эйнджел, Ди Брэдли Бейкер

Описание : Адриатика, двадцатые годы прошлого столетия. Итальянский пилот Марко Паготт храбро сражался в годы первой мировой войны. Однако после войны он разочаровался в военном деле, себе и людях, превратившись в самую настоящую свинью. В конце двадцатых, когда в Италии к власти пришли фашисты во главе с Муссолини, Марко, назвавший себя Порко Россо ("Малиновая свинья"), начал работать спасателем по найму в небе Адриатики. Его гидросамолет наводит ужас на воздушных пиратов, однако это не приносит Порко удовлетворения и душевного спокойствия...



Страна : Япония
Производство : Studio Ghibli
Продолжительность : 01:33:19
Перевод : Профессиональный (Многоголосый, закадровый) RUSCICO
Русские субтитры : есть
Автор рипа и релиза :

Файл
Формат видео : AVI
Качество : BDRip (исходник: BDRemux [Porco Rosso [BDRemux 1920x1080 H.264 DTS-HD]])

Видео: XviD, 720x384 (1.875), 1849 Кбит/с, 23.976 fps
Аудио 1: Русский, AC3, 192 Кбит/с, 48.0 Hz, 2 ch (в составе контейнера)
Аудио 2: Японский, AC3, 192 Кбит/с, 48.0 Hz, 2 ch (в составе контейнера)
Субтитры (srt): Русские [RUSCICO], Английские (внешним файлом)









General
Complete name : E:/Torrent_2/Porco Rosso (1992, XviD BDRip, AC3+SUB) [Stranik 2.0]/Porco Rosso (1992, XviD BDRip, AC3+SUB) [Stranik 2.0].avi
Format : AVI
Format/Info : Audio Video Interleave
Format profile : OpenDML
File size : 1.46 GiB
Duration : 1h 33mn
Overall bit rate : 2 241 Kbps
Writing application : AVI-Mux GUI 1.17.8, Aug 30 2008 12:36:58

Video #0
ID : 0
Format : MPEG-4 Visual
Format profile : Advanced Simple@L5
Format settings, BVOP : Yes
Format settings, QPel : Yes
Format settings, GMC : No warppoints
Format settings, Matrix : Default (H.263)
Codec ID : XVID
Codec ID/Hint : XviD
Duration : 1h 33mn
Bit rate : 1 849 Kbps
Width : 720 pixels
Height : 384 pixels
Display aspect ratio : 1.875
Frame rate : 23.976 fps
Color space : YUV
Chroma subsampling : 4:2:0
Bit depth : 8 bits
Scan type : Progressive
Compression mode : Lossy
Bits/(Pixel*Frame) : 0.279
Stream size : 1.21 GiB (83%)
Writing library : XviD 1.2.1 (UTC 2008-12-04)

Audio #1
ID : 1
Format : AC-3
Format/Info : Audio Coding 3
Mode extension : CM (complete main)
Codec ID : 2000
Duration : 1h 33mn
Bit rate mode : Constant
Bit rate : 192 Kbps
Channel(s) : 2 channels
Channel positions : Front: L R
Sampling rate : 48.0 KHz
Bit depth : 16 bits
Compression mode : Lossy
Stream size : 128 MiB (9%)
Alignment : Aligned on interleaves
Interleave, duration : 64 ms (1.53 video frames)
Interleave, preload duration : 192 ms

Audio #2
ID : 2
Format : AC-3
Format/Info : Audio Coding 3
Mode extension : CM (complete main)
Codec ID : 2000
Duration : 1h 33mn
Bit rate mode : Constant
Bit rate : 192 Kbps
Channel(s) : 2 channels
Channel positions : Front: L R
Sampling rate : 48.0 KHz
Bit depth : 16 bits
Compression mode : Lossy
Stream size : 128 MiB (9%)
Alignment : Aligned on interleaves
Interleave, duration : 64 ms (1.53 video frames)
Interleave, preload duration : 192 ms







   Похожие торренты   Торрент   Размер 
В этой теме нет новых непрочитанных сообщений. Порко Россо / Kurenai no buta / Porco Rosso (1992) BDRip 1080p от Freeisland

131 | 8

5.76 ГБ

В этой теме нет новых непрочитанных сообщений. Ещё вчера / Only Yesterday / Omoide Poro-poro (1991) BDRip от Stranik 2.0 | P

15 | 9

1.46 ГБ

В этой теме нет новых непрочитанных сообщений. Кроваво-красное / Profondo Rosso (1975) BDRip от Files-x

4 | 5

1.46 ГБ

В этой теме нет новых непрочитанных сообщений. Красная пустыня / Il deserto rosso (1964) BDRip от HQ-ViDEO

6 | 2

2.18 ГБ

В этой теме нет новых непрочитанных сообщений. Красная пустыня / Il deserto rosso (1964) BDRip-AVC от Тorrent-Хzona

118 | 11

1.59 ГБ

В этой теме нет новых непрочитанных сообщений. Кроваво-красное / Profondo rosso (1975) BDRip 720p от NovaLan

1 | 5

10.44 ГБ

В этой теме нет новых непрочитанных сообщений. Попутчик: Начало, или Кровавый автостоп / Autostop rosso sangue (1977) BDRip-AVC от Rulya74

60 | 23

2.05 ГБ




Вы не можете начинать темы
Вы не можете отвечать на сообщения
Вы не можете редактировать свои сообщения
Вы не можете удалять свои сообщения
Вы не можете добавлять вложения

Перейти:  
Для Мосгорсуда, Роскомнадзора и рекламодателей: mosgorsud-torrent[собачка]yandex.ru
 Вход
ppkBB3cker v.2 © 2008-2014 @ PPK
[ Time : 0.021s | 15 Queries | GZIP : On ]

Торрент трекер RUTOR.IN, Не можете зайти на rutor.org? Какой новый адрес рутор? Какое зеркало рутор? Не работает rutor.org и зеркала? Тогда наш торрент специально для вас. Rutor.in неофициальное зеркало rutor. В случае если у Вас заблокирован rutor или вдруг Вы не можете на него зайти, то Вы без труда сможете скачать бесплатно и без рекламы последние новинки кино, игр, сериалов и прочего у нас, на Rutor.in. Не нужно использовать прокси, чтобы зайти на рутор, достаточно воспользоваться нашим ресурсом. Все новые фильмы, игры, сериалы, книги и музыка за 2013 и 2014 годы через торрент бесплатно. Скачивайте фильмы в хорошем качестве, игры для пк, xbox, playstation без регистрации. У нас вы найдете новые Зарубежные сериалы и Русские сериалы 2013, 2014, 2015 годов. Оставайтесь с нами, качайте любимые фильмы, игры, сериалы, книги и музыку.