img image001 image001 image001 image001 image001 image001 image001 image001 image001 image001 image001 image001 image001 image001 image001

Planets Sun Sun Sun
Статистика раздачи
Автор: Nickolas3434 | Размер: 592.75 МБ | Добавлен: 02 апр 2014
Раздают: 121    Качают: 28
Скачать торрент
Скачать торрент
Описание торрента

СообщениеДобавлено: 02 апр 2014 

Информация о фильме
Название: Странности+
Оригинальное название: Strange+ / Strange Plus / ストレンジ・プラス
Страна: Япония
Год выхода: 2014
Жанр: комедия, пародия
Режиссер: Нисикава Такаси / Nishikawa Takashi / 西川貴史
Автор оригинала: Микава Верно / Mikawa Verno / 美川べるの

О фильме: Главный персонаж Ко отправляется на поиски своего сбежавшего из дома брата Такуми. Поиски приводят Ко в трущобы. Там выясняется, что Такуми ныне руководит детективным агентством Микуни и не желает возвращаться домой. Поэтому Ко остается работать в детективном агентстве своего брата.

Студия:

Продолжительность: ТВ (12 эп.), 5 мин.
Выпуск: c 10.01.2014 по 28.03.2014
Перевод: Любительский (двухголосый) | AniDub |
Озвучка: Inspector Gadjet & Oriko
Субтитры: отсутствуют
Хардсаб: отсутствует
Перевод на русский: Lulu | Редактор: Harushechka | Тайминг: Мексиканская лягушка наркоман

Файл
Качество: WEBRip
Формат: MP4
Видео: 1280 x 720 (16:9) at 29.970, AVC (x264), High@L4.0, 1776 Kbps avg, 0.064 bit/pixel, 8 bit
Звук:
Аудио: RUS - 48 kHz, AAC, 2 ch, ~192.00 kbps avg



Общее
Полное имя : [AniDub]_Strange_Plus_[720p]_[Inspector_Gadget_and_Oriko][AniDub]_Strange_Plus_[01]_[720p_x264_Aac]_[Inspector_Gadget_and_Oriko].mp4
Формат : MPEG-4
Профиль формата : Base Media
Идентификатор кодека : isom
Размер файла : 49,2 Мбайт
Продолжительность : 3 м. 30 с.
Общий поток : 1960 Кбит/сек
Дата кодирования : UTC 2014-01-18 17:54:00
Дата пометки : UTC 2014-01-18 17:54:00
Программа кодирования : Yamb 2.1.0.0 [http://yamb.unite-video.com]

Видео
Идентификатор : 1
Формат : AVC
Формат/Информация : Advanced Video Codec
Профиль формата : High@L4.0
Параметр CABAC формата : Да
Параметр ReFrames формата : 6 кадры
Параметры GOP формата : M=4, N=25
Идентификатор кодека : avc1
Идентификатор кодека/Информация : Advanced Video Coding
Продолжительность : 3 м. 30 с.
Вид битрейта : Переменный
Битрейт : 1776 Кбит/сек
Максимальный битрейт : 6037 Кбит/сек
Ширина : 1280 пикс.
Высота : 720 пикс.
Соотношение сторон : 16:9
Режим частоты кадров : Постоянный
Частота кадров : 29,970 кадр/сек
Цветовое пространство : YUV
Подвыборка цветности : 4:2:0
Битовая глубина : 8 бит
Тип развёртки : Прогрессивная
Бит/(Пиксели*Кадры) : 0.064
Размер потока : 44,2 Мбайт (90%)
Библиотека кодирования : x264 core 120 r2120 0c7dab9
Настройки программы : cabac=1 / ref=6 / deblock=1:1:1 / analyse=0x3:0x113 / me=umh / subme=8 / psy=1 / psy_rd=0.40:0.00 / mixed_ref=1 / me_range=16 / chroma_me=1 / trellis=1 / 8x8dct=1 / cqm=0 / deadzone=21,11 / fast_pskip=1 / chroma_qp_offset=-2 / threads=4 / sliced_threads=0 / nr=0 / decimate=1 / interlaced=0 / bluray_compat=0 / constrained_intra=0 / bframes=3 / b_pyramid=2 / b_adapt=2 / b_bias=0 / direct=3 / weightb=1 / open_gop=0 / weightp=2 / keyint=250 / keyint_min=25 / scenecut=40 / intra_refresh=0 / rc_lookahead=50 / rc=2pass / mbtree=1 / bitrate=1776 / ratetol=1.0 / qcomp=0.60 / qpmin=0 / qpmax=69 / qpstep=4 / cplxblur=20.0 / qblur=0.5 / vbv_maxrate=3552 / vbv_bufsize=8880 / nal_hrd=none / ip_ratio=1.40 / aq=1:0.60
Дата кодирования : UTC 2014-01-18 16:42:28
Дата пометки : UTC 2014-01-18 17:54:01

Аудио
Идентификатор : 2
Формат : AAC
Формат/Информация : Advanced Audio Codec
Профиль формата : LC
Идентификатор кодека : 40
Продолжительность : 3 м. 30 с.
Вид битрейта : Переменный
Битрейт : 192 Кбит/сек
Максимальный битрейт : 199 Кбит/сек
Канал(ы) : 2 канала(ов)
Расположение каналов : Front: L R
Частота : 48,0 КГц
Метод сжатия : С потерями
Размер потока : 4,82 Мбайт (10%)
Заголовок : [Inspector_Gadjet_and_Oriko]
Язык : Russian
Дата кодирования : UTC 2014-01-18 17:54:01
Дата пометки : UTC 2014-01-18 17:54:01

01. Thief
02. Princess
03. Hospital
04. Trap
05. Mistress
06. Precious
07. Procession
08. Intruder
09. Guard
10. Curse
11. Antique
12. Hero




   Похожие торренты   Торрент   Размер 
В этой теме нет новых непрочитанных сообщений. Любовь, странная любовь / Странности любви / Love Strange Love (1982) DVDRip от R.G.Mega Best

120 | 35

1.37 ГБ

В этой теме нет новых непрочитанных сообщений. The Doors. When you`re strange / When You're Strange (2009) DVDRip

101 | 5

1.37 ГБ

В этой теме нет новых непрочитанных сообщений. Странность+ / Strange+ [TV] [01 из 12] (2014) HDTVRip 720p | AniFilm

17 | 5

64.06 МБ

В этой теме нет новых непрочитанных сообщений. Странность+ / Strange+ [TV] [02 из 12] (2014) HDTVRip 720p | AniFilm

8 | 4

51.38 МБ

В этой теме нет новых непрочитанных сообщений. Доктор Стрэндж / Doctor Strange (2016) WEBRip-1080p | Трейлер

25 | 0

118.58 МБ

В этой теме нет новых непрочитанных сообщений. VA - A Bit Of Strange (2014) MP3

36 | 3

155.45 МБ

В этой теме нет новых непрочитанных сообщений. Bleachers - Strange Desire (2014) МР3

0 | 0

90.11 МБ




Вы не можете начинать темы
Вы не можете отвечать на сообщения
Вы не можете редактировать свои сообщения
Вы не можете удалять свои сообщения
Вы не можете добавлять вложения

Перейти:  
Для Мосгорсуда, Роскомнадзора и рекламодателей: mosgorsud-torrent[собачка]yandex.ru
 Вход
ppkBB3cker v.2 © 2008-2014 @ PPK
[ Time : 0.052s | 16 Queries | GZIP : Off ]

cron