img image001 image001 image001 image001 image001 image001 image001 image001 image001 image001 image001 image001 image001 image001 image001

Planets Sun Sun Sun
Статистика раздачи
Автор: Nickolas3434 | Размер: 1.01 ГБ | Добавлен: 05 апр 2014
Раздают: 314    Качают: 32
Скачать торрент
Скачать торрент
Описание торрента

СообщениеДобавлено: 05 апр 2014 

Информация о фильме
Название: Летающий корабль-призрак
Оригинальное название: Sora tobu yûreisen
Год выхода: 1969
Жанр: аниме, мультфильм, фантастика, приключения
Режиссер: Хироши Икеда
В ролях: Масако Нодзава, Акио Танака, Куоко Сатоми, Акира Нагоя, Горо Ная, Кози Томита, Кейичи Нода, Исаму Танонака, Хироши Масуока, Куоко Аи

О фильме: Многие годы в океане бесследно пропадают корабли. Люди, чудом оставшиеся в живых, вспоминают что незадолго до катастрофы они видели таинственный Корабль-Призрак… Гигантский робот Голем разрушающий кварталы Токио, объявляет себя посланцем Корабля-Призрака…

На улицах города, у всех на глазах исчезают люди. Все считают, что это козни Корабля-Призрака… И только у отважного мальчика Хаято есть повод сомневаться в этом. Он готов отправиться в рискованное приключение, чтобы узнать тайну Корабля-Призрака и его загадочного капитана!



Выпущено: Toei Animation Company
Продолжительность: 01:00:33
Перевод: Профессиональный (многоголосый, закадровый)

Файл
Кодек: x264
Качество: DVDRip-AVC
Видео: 816x348 (2,35:1), 23.976 fps, 1630 kbps
Аудио #1: AC-3, 6 ch, 384 kbps (Rus)
Аудио #2: AC-3, 6 ch, 384 kbps (Jpn)
Субтитры: Русские
Скачать: сэмпл

Скриншоты

Общее
Уникальный идентификатор : 172895356443325235785807595410973806262 (0x82126F36473BD42DB226FCD0DCD84EB6)
Полное имя : Sora.Tobu.Yureisen.1969.DVDRip.AVC.Rus.Jpn.mkv
Формат : Matroska
Версия формата : Version 2
Размер файла : 1,01 Гбайт
Продолжительность : 1 ч. 0 м.
Общий поток : 2399 Кбит/сек
Название фильма : Летающий корабль-призрак / Sora tobu yûreisen (1969)
Дата кодирования : UTC 2014-04-04 15:06:59
Программа кодирования : mkvmerge v5.8.0 ('No Sleep / Pillow') built on Sep 2 2012 15:37:04
Библиотека кодирования : libebml v1.2.3 + libmatroska v1.3.0

Видео
Идентификатор : 1
Формат : AVC
Формат/Информация : Advanced Video Codec
Профиль формата : High@L4.1
Параметр CABAC формата : Да
Параметр ReFrames формата : 11 кадров
Идентификатор кодека : V_MPEG4/ISO/AVC
Продолжительность : 1 ч. 0 м.
Битрейт : 1629 Кбит/сек
Ширина : 816 пикселей
Высота : 348 пикселей
Соотношение сторон : 2,35:1
Режим частоты кадров : Постоянный
Частота кадров : 23,976 кадра/сек
Цветовое пространство : YUV
Субдискретизация насыщенности : 4:2:0
Битовая глубина : 8 бит
Тип развёртки : Прогрессивная
Бит/(Пиксели*Кадры) : 0.239
Размер потока : 686 Мбайт (66%)
Заголовок : Release by AlexKa
Библиотека кодирования : x264 core 142 r2409 d6b4e63
Настройки программы : cabac=1 / ref=11 / deblock=1:0:0 / analyse=0x3:0x133 / me=tesa / subme=9 / psy=1 / psy_rd=1.00:0.00 / mixed_ref=1 / me_range=32 / chroma_me=1 / trellis=2 / 8x8dct=1 / cqm=0 / deadzone=21,11 / fast_pskip=0 / chroma_qp_offset=-2 / threads=12 / lookahead_threads=2 / sliced_threads=0 / nr=0 / decimate=1 / interlaced=0 / bluray_compat=0 / constrained_intra=0 / bframes=11 / b_pyramid=2 / b_adapt=2 / b_bias=0 / direct=3 / weightb=1 / open_gop=0 / weightp=2 / keyint=240 / keyint_min=23 / scenecut=40 / intra_refresh=0 / rc=2pass / mbtree=0 / bitrate=1629 / ratetol=1.0 / qcomp=0.60 / qpmin=0 / qpmax=69 / qpstep=4 / cplxblur=20.0 / qblur=0.5 / ip_ratio=1.40 / pb_ratio=1.30 / aq=1:1.00
Язык : Japanese

Аудио #1
Идентификатор : 2
Формат : AC-3
Формат/Информация : Audio Coding 3
Расширение режима : CM (complete main)
Параметр Endianness формата : Big
Идентификатор кодека : A_AC3
Продолжительность : 1 ч. 0 м.
Вид битрейта : Постоянный
Битрейт : 384 Кбит/сек
Каналы : 6 каналов
Расположение каналов : Front: L C R, Side: L R, LFE
Частота : 48,0 КГц
Битовая глубина : 16 бит
Метод сжатия : С потерями
Размер потока : 166 Мбайт (16%)
Заголовок : Rus
Язык : Russian

Аудио #2
Идентификатор : 3
Формат : AC-3
Формат/Информация : Audio Coding 3
Расширение режима : CM (complete main)
Параметр Endianness формата : Big
Идентификатор кодека : A_AC3
Продолжительность : 1 ч. 0 м.
Вид битрейта : Постоянный
Битрейт : 384 Кбит/сек
Каналы : 6 каналов
Расположение каналов : Front: L C R, Side: L R, LFE
Частота : 48,0 КГц
Битовая глубина : 16 бит
Метод сжатия : С потерями
Размер потока : 166 Мбайт (16%)
Заголовок : Jpn
Язык : Japanese

Текст
Идентификатор : 4
Формат : UTF-8
Идентификатор кодека : S_TEXT/UTF8
Идентификатор кодека/Информация : UTF-8 Plain Text
Заголовок : Rus
Язык : Russian

Меню
00:00:00.000 : :Chapter 01
00:01:02.000 : :Chapter 02
00:03:14.667 : :Chapter 03
00:07:03.635 : :Chapter 04
00:13:09.469 : :Chapter 05
00:22:13.969 : :Chapter 06
00:27:26.269 : :Chapter 07
00:32:51.170 : :Chapter 08
00:40:04.637 : :Chapter 09
00:45:42.971 : :Chapter 10
00:50:18.071 : :Chapter 11
00:58:46.338 : :Chapter 12
01:00:27.471 : :Chapter 13



   Похожие торренты   Торрент   Размер 
В этой теме нет новых непрочитанных сообщений. Летающий корабль-призрак / The Flying Phantom Ship / Sora tobu yûreisen (1969) DVDRip-AVC

3 | 2

1.09 ГБ

В этой теме нет новых непрочитанных сообщений. Летающий корабль-призрак / The Flying Phantom Ship / Sora tobu yûreisen (1969) DVDRip

21 | 3

1.09 ГБ

В этой теме нет новых непрочитанных сообщений. Корабль-Призрак / Sora tobu yureisen (1969) DVDRip от MediaClub | КПК

51 | 3

178.4 МБ

В этой теме нет новых непрочитанных сообщений. Летающий корабль призрак / Sora Tobu Yurei Sen (1969) DVDRip

24 | 12

502.51 МБ

В этой теме нет новых непрочитанных сообщений. Летающий корабль (1960) DVDRip - Generalfilm

30 | 20

1.37 ГБ

В этой теме нет новых непрочитанных сообщений. Летающий цирк Монти Пайтон / Monty Python's Flying Circus [s01] (1969 - 1970) DVDRip от Brazzass

52 | 42

5.41 ГБ

В этой теме нет новых непрочитанных сообщений. Корабль-призрак / Ghost Ship (2002) DVDRip | A от ExKinoRay

34 | 44

1.47 ГБ




Вы не можете начинать темы
Вы не можете отвечать на сообщения
Вы не можете редактировать свои сообщения
Вы не можете удалять свои сообщения
Вы не можете добавлять вложения

Перейти:  
Для Мосгорсуда, Роскомнадзора и рекламодателей: mosgorsud-torrent[собачка]yandex.ru
 Вход
ppkBB3cker v.2 © 2008-2014 @ PPK
[ Time : 0.024s | 17 Queries | GZIP : Off ]

Торрент трекер RUTOR.IN, Не можете зайти на rutor.org? Какой новый адрес рутор? Какое зеркало рутор? Не работает rutor.org и зеркала? Тогда наш торрент специально для вас. Rutor.in неофициальное зеркало rutor. В случае если у Вас заблокирован rutor или вдруг Вы не можете на него зайти, то Вы без труда сможете скачать бесплатно и без рекламы последние новинки кино, игр, сериалов и прочего у нас, на Rutor.in. Не нужно использовать прокси, чтобы зайти на рутор, достаточно воспользоваться нашим ресурсом. Все новые фильмы, игры, сериалы, книги и музыка за 2013 и 2014 годы через торрент бесплатно. Скачивайте фильмы в хорошем качестве, игры для пк, xbox, playstation без регистрации. У нас вы найдете новые Зарубежные сериалы и Русские сериалы 2013, 2014, 2015 годов. Оставайтесь с нами, качайте любимые фильмы, игры, сериалы, книги и музыку.