img image001 image001 image001 image001 image001 image001 image001 image001 image001 image001 image001 image001 image001 image001 image001

Planets Sun Sun Sun
Статистика раздачи
Автор: Nickolas3434 | Размер: 9.68 ГБ | Добавлен: 09 апр 2014
Раздают: 385    Качают: 34
Скачать торрент
Скачать торрент
Описание торрента

СообщениеДобавлено: 09 апр 2014 

Волчьи дети Амэ и Юки / Ookami kodomo no Ame to Yuki


Год выпуска: 2012
Страна: Япония
Производство: Chukyo TV Broadcasting Company (CTV), D.N. Dream Partners, Dentsu, Digital Frontier
Слоган: «Love wildly»
Жанр: аниме, мультфильм, фэнтези
Продолжительность: 01:57:02
Перевод: Профессиональный (полное дублирование) Blu-ray RUS
Субтитры: Русские (форсированные, полные)

Режиссер: Мамору Хосода / Mamoru Hosoda
Сценарий: Мамору Хосода / Mamoru Hosoda, Сатоко Окудера / Satoko Okudera
Продюсер: Такуя Ито / Takuya Itô, Юичиро Сато / Yuichiro Sato, Такафуми Ватанабэ / Takafumi Watanabe, Хироясу Асами / Hiroyasu Asami, Синитиро Иноэ / Shin'ichirô Inoue
Композитор: Масакацу Такаги / Masakatsu Takagi

В ролях: Аои Миядзаки (Hana, озвучка), Такао Осава (Wolf Man, озвучка), Хару Куроки (Yuki, озвучка), Юкито Нисии (Ame, озвучка), Момока Оно (Young Yuki, озвучка), Амон Кабе (Young Ame, озвучка), Такума Хираока (Sohei, озвучка), Мэгуми Хаясибара (Sohei's Mother, озвучка), Тадаси Накамура (Hosokawa, озвучка), Тамио Оки (Yamaoka, озвучка), Томие Катаока (Mrs. Nirasaki, озвучка), Хайме Иноэ (Tendo, озвучка)

Сборы в мире: $52 098 423

Мировая премьера: 25 июня 2012
Премьера (РФ): 1 ноября 2012, «Reanimedia»

Описание: Юки и Амэ - только с виду обычные дети, которым должны быть нипочем тяготы окружающего мира. Когда погибает их отец, последний представитель древнего рода оборотней, их матери - обыкновенной девушке, когда-то влюбившейся в человека, оказавшегося волком - приходится переехать подальше от большого города и начать все сначала.

Рейтинг:



MPAA: PG - Рекомендуется присутствие родителей

Видеоряд от CHD
Сборка рипа - Respector
За предоставленный материал спасибо - HDClub'у.

Формат: Matroska
Видео: 1920x1080 at 23.976 fps, x264@L4.1, ~8184 kbps avg
Аудио #1: Russian: 48 kHz, AC3, 3/2 (L,C,R,l,r) + LFE ch, ~640.00 kbps avg |Дубляж, Blu-ray RUS|
Aудио #2: Russian: 48 kHz, DTS, 3/2 (L,C,R,l,r) + LFE ch, ~1510.00 kbps avg |Дубляж, Blu-ray RUS|
Aудио #3: Japanese: 48 kHz, DTS, 3/2 (L,C,R,l,r) + LFE ch, ~1536.00 kbps avg

[*]Специально для создания этого фильма Мамору Хосода основал студию Chizu.
General
Unique ID : 218084480974917425779855019548601574469 (0xA4118B1139754E6CA29C76F930556445)
Complete name : Okami.kodomo.no.ame.to.yuki.2012.BDRip.1080p.mkv
Format : Matroska
Format version : Version 2
File size : 9.68 GiB
Duration : 1h 57mn
Overall bit rate : 11.8 Mbps
Movie name : Respector
Encoded date : UTC 2014-04-07 17:52:51
Writing application : mkvmerge v5.5.0 ('Healer') built on Apr 24 2012 23:47:03
Writing library : libebml v1.2.3 + libmatroska v1.3.0

Video
ID : 1
Format : AVC
Format/Info : Advanced Video Codec
Format profile : High@L4.1
Format settings, CABAC : Yes
Format settings, ReFrames : 4 frames
Codec ID : V_MPEG4/ISO/AVC
Duration : 1h 57mn
Bit rate : 8 184 Kbps
Width : 1 920 pixels
Height : 1 080 pixels
Display aspect ratio : 16:9
Frame rate mode : Constant
Frame rate : 23.976 fps
Color space : YUV
Chroma subsampling : 4:2:0
Bit depth : 8 bits
Scan type : Progressive
Bits/(Pixel*Frame) : 0.165
Stream size : 6.49 GiB (67%)
Title : hahay0yo@CHD
Writing library : x264 core 128 r2216+698 b3c1019
Encoding settings : cabac=1 / ref=4 / deblock=1:-3:-3 / analyse=0x3:0x113 / me=umh / subme=10 / psy=1 / fade_compensate=0.00 / psy_rd=1.10:0.10 / mixed_ref=1 / me_range=48 / chroma_me=1 / trellis=2 / 8x8dct=1 / cqm=0 / deadzone=21,11 / fast_pskip=0 / chroma_qp_offset=-2 / threads=12 / lookahead_threads=2 / sliced_threads=0 / nr=0 / decimate=1 / interlaced=0 / bluray_compat=0 / constrained_intra=0 / fgo=0 / bframes=6 / b_pyramid=2 / b_adapt=2 / b_bias=0 / direct=3 / weightb=1 / open_gop=0 / weightp=2 / keyint=250 / keyint_min=23 / scenecut=40 / intra_refresh=0 / rc_lookahead=40 / rc=2pass / mbtree=0 / bitrate=8184 / ratetol=2.0 / qcomp=0.70 / qpmin=0 / qpmax=69 / qpstep=4 / cplxblur=20.0 / qblur=0.5 / vbv_maxrate=40000 / vbv_bufsize=30000 / nal_hrd=none / ip_ratio=1.40 / pb_ratio=1.30 / aq=2:1.00
Language : Japanese
Default : Yes
Forced : No

Audio #1
ID : 2
Format : AC-3
Format/Info : Audio Coding 3
Mode extension : CM (complete main)
Format settings, Endianness : Big
Codec ID : A_AC3
Duration : 1h 57mn
Bit rate mode : Constant
Bit rate : 640 Kbps
Channel(s) : 6 channels
Channel positions : Front: L C R, Side: L R, LFE
Sampling rate : 48.0 KHz
Bit depth : 16 bits
Compression mode : Lossy
Stream size : 536 MiB (5%)
Language : Russian
Default : Yes
Forced : Yes

Audio #2
ID : 3
Format : DTS
Format/Info : Digital Theater Systems
Mode : 16
Format settings, Endianness : Big
Codec ID : A_DTS
Duration : 1h 57mn
Bit rate mode : Constant
Bit rate : 1 509 Kbps
Channel(s) : 6 channels
Channel positions : Front: L C R, Side: L R, LFE
Sampling rate : 48.0 KHz
Bit depth : 24 bits
Compression mode : Lossy
Stream size : 1.23 GiB (13%)
Language : Russian
Default : No
Forced : No

Audio #3
ID : 4
Format : DTS
Format/Info : Digital Theater Systems
Mode : 16
Format settings, Endianness : Big
Codec ID : A_DTS
Duration : 1h 57mn
Bit rate mode : Constant
Bit rate : 1 510 Kbps
Channel(s) : 6 channels
Channel positions : Front: L C R, Side: L R, LFE
Sampling rate : 48.0 KHz
Bit depth : 24 bits
Compression mode : Lossy
Stream size : 1.23 GiB (13%)
Language : Japanese
Default : No
Forced : No

Text #1
ID : 5
Format : UTF-8
Codec ID : S_TEXT/UTF8
Codec ID/Info : UTF-8 Plain Text
Title : Forced
Language : Russian
Default : No
Forced : No

Text #2
ID : 6
Format : UTF-8
Codec ID : S_TEXT/UTF8
Codec ID/Info : UTF-8 Plain Text
Title : Full
Language : Russian
Default : No
Forced : No

Menu
00:00:00.000 : :Chapter 01
00:00:28.319 : :Chapter 02
00:10:32.340 : :Chapter 03
00:14:00.089 : :Chapter 04
00:22:21.506 : :Chapter 05
00:29:44.282 : :Chapter 06
00:38:44.238 : :Chapter 07
00:48:30.157 : :Chapter 08
00:53:34.711 : :Chapter 09
01:04:37.206 : :Chapter 10
01:10:47.284 : :Chapter 11
01:17:58.048 : :Chapter 13
01:25:09.354 : :Chapter 14
01:37:44.108 : :Chapter 15
01:44:34.309 : :Chapter 16
01:51:48.118 : :Chapter 17
01:57:01.556 : :Chapter 18
01:57:20.992 : :Chapter 19

ЦитатаКто-то писал:
Выражается ОГРОМНАЯ благодарность компании Реанимедия за появление этого диска на свет. Только благодаря им в России до сих пор выпускаются аниме релизы. На следующий год у них запланировано еще много интересных релизов. Для того чтобы дела компании шли хорошо и они и дальше нас радовали новыми релизами - поддержите компанию, купите это издание в их магазине - Магазин Otaku.



   Похожие торренты   Торрент   Размер 
В этой теме нет новых непрочитанных сообщений. Волчьи дети Амэ и Юки / Ookami Kodomo no Ame to Yuki / The Wolf Children Ame and Yuki (2012) BDRip 720p от Мифоград | L2

0 | 4

3.4 ГБ

В этой теме нет новых непрочитанных сообщений. Волчьи дети Амэ и Юки / Ookami Kodomo no Ame to Yuki / The Wolf Children Ame and Yuki (2012) BDRip 720p от Leonardo and Scarabey

91 | 25

2.14 ГБ

В этой теме нет новых непрочитанных сообщений. Волчьи дети Амэ и Юки / Ookami Kodomo no Ame to Yuki (2012) BDRip от Stranik 2.0 | D

98 | 8

1.97 ГБ

В этой теме нет новых непрочитанных сообщений. Волчьи дети Амэ и Юки / Ookami kodomo no Ame to Yuki (2012) BDRip 720p

268 | 49

3.35 ГБ

В этой теме нет новых непрочитанных сообщений. OST - Волчьи дети Амэ и Юки / Ookami Kodomo no Ame to Yuki (2012) MP3

1 | 1

282.55 МБ

В этой теме нет новых непрочитанных сообщений. Волчьи дети / Wolfskinder (2013) HDTVRip | L 1

197 | 45

1.34 ГБ

В этой теме нет новых непрочитанных сообщений. Дети полуночи / Midnight's Children (2012) BDRip 1080p | P

15 | 9

7.59 ГБ




Вы не можете начинать темы
Вы не можете отвечать на сообщения
Вы не можете редактировать свои сообщения
Вы не можете удалять свои сообщения
Вы не можете добавлять вложения

Перейти:  
Для Мосгорсуда, Роскомнадзора и рекламодателей: mosgorsud-torrent[собачка]yandex.ru
 Вход
ppkBB3cker v.2 © 2008-2014 @ PPK
[ Time : 0.623s | 15 Queries | GZIP : Off ]

Торрент трекер RUTOR.IN, Не можете зайти на rutor.org? Какой новый адрес рутор? Какое зеркало рутор? Не работает rutor.org и зеркала? Тогда наш торрент специально для вас. Rutor.in неофициальное зеркало rutor. В случае если у Вас заблокирован rutor или вдруг Вы не можете на него зайти, то Вы без труда сможете скачать бесплатно и без рекламы последние новинки кино, игр, сериалов и прочего у нас, на Rutor.in. Не нужно использовать прокси, чтобы зайти на рутор, достаточно воспользоваться нашим ресурсом. Все новые фильмы, игры, сериалы, книги и музыка за 2013 и 2014 годы через торрент бесплатно. Скачивайте фильмы в хорошем качестве, игры для пк, xbox, playstation без регистрации. У нас вы найдете новые Зарубежные сериалы и Русские сериалы 2013, 2014, 2015 годов. Оставайтесь с нами, качайте любимые фильмы, игры, сериалы, книги и музыку.