img image001 image001 image001 image001 image001 image001 image001 image001 image001 image001 image001 image001 image001 image001 image001

Planets Sun Sun Sun
Статистика раздачи
Автор: Nickolas3434 | Размер: 1.92 ГБ | Добавлен: 15 апр 2014
Раздают: 72    Качают: 24
Скачать торрент
Скачать торрент
Описание торрента

СообщениеДобавлено: 15 апр 2014 

Информация о фильме

Название : Ветер крепчает
Оригинальное название : Kaze Tachinu / 風立ちぬ
Год выхода : 2013
Жанр : драма, биография, исторический
Режиссер : Хаяо Миядзаки
Роли озвучивали : Хидеаки Анно, Дзюн Кунимура, Мираи Сида, Миори Такимото, Хидэтоси Нисидзима, Мансай Номура, Масахико Нисимура, Стив Элперт, Кейко Такэсита, Синобу Отакэ

Описание : История начинается со знакомства с десятилетним Дзиро Хорикоси. Он мечтает о небе и хочет стать пилотом. Проходят годы, и Дзиро став авиаконструктором работает над новым самолетом. Ему поручено создать палубный истребитель, так как начало войны — дело времени.
В основу сюжета произведения ляжет одноимённая манга авторства самого Миядзаки, публиковавшаяся в журнале Model Graphix в 2009 году, рассказывающая о японском конструкторе Дзиро Хорикоси, известного своей работой над истребителем Mitsubishi A6M Zero. Также источником сюжета является рассказ писателя Тацуо Хори «Ветер крепчает», написанный в 1936-37 годах. Название рассказа является цитатой одной из строк стихотворения Поля Валери «Кладбище у моря».

Доп. информация : Оригинальная озвучка взята из видео скачанного с англоязычного трекера, звук записан с кинотеатра. Субтитры сделаны мной, это мои первые субтитры сделанные с нуля, перевод взят с дубляжа, перевод финальной песни с тв показа.

Страна : Япония
Производство : Studio Ghibli
Продолжительность : 02:01:32
Перевод : Профессиональный (полное дублирование) Reanimedia
Автор рипа и релиза :

Файл
Формат видео : AVI
Качество : DVDRip (исходник: DVD9)

Видео: XviD, 720x384 (1.85:1), 1903 Кбит/с, 25.0 fps
Аудио 1: Русский, AC3, 192 Кбит/с, 48.0 Hz, 2 ch (в составе контейнера)
Аудио 2: Японский, AC3, 160 Кбит/с, 48.0 Hz, 2 ch (в составе контейнера)
Субтитры (srt): Русские [Перевод с дубляжа Reanimedia] (внешним файлом)









General
Complete name : E:/Torrent_2/Kaze Tachinu (2013, XviD DVDRip, RUS JAP+SUB) [Stranik 2.0]/Kaze Tachinu (2013, XviD DVDRip, RUS JAP+SUB) [Stranik 2.0].avi
Format : AVI
Format/Info : Audio Video Interleave
Format profile : OpenDML
Format settings : rec
File size : 1.92 GiB
Duration : 2h 1mn
Overall bit rate : 2 263 Kbps
Writing application : AVI-Mux GUI 1.17.8.3, Feb 16 201019:42:50

Video
ID : 0
Format : MPEG-4 Visual
Format profile : Advanced Simple@L5
Format settings, BVOP : Yes
Format settings, QPel : Yes
Format settings, GMC : No warppoints
Format settings, Matrix : Default (H.263)
Codec ID : XVID
Codec ID/Hint : XviD
Duration : 2h 1mn
Bit rate : 1 903 Kbps
Width : 720 pixels
Height : 384 pixels
Display aspect ratio : 1.85:1
Frame rate : 25.000 fps
Color space : YUV
Chroma subsampling : 4:2:0
Bit depth : 8 bits
Scan type : Progressive
Compression mode : Lossy
Bits/(Pixel*Frame) : 0.275
Stream size : 1.62 GiB (84%)
Writing library : XviD 1.2.1 (UTC 2008-12-04)

Audio #1
ID : 1
Format : AC-3
Format/Info : Audio Coding 3
Mode extension : CM (complete main)
Format settings, Endianness : Big
Codec ID : 2000
Duration : 2h 1mn
Bit rate mode : Constant
Bit rate : 192 Kbps
Channel(s) : 2 channels
Channel positions : Front: L R
Sampling rate : 48.0 KHz
Bit depth : 16 bits
Compression mode : Lossy
Stream size : 167 MiB (8%)
Alignment : Aligned on interleaves
Interleave, duration : 64 ms (1.60 video frames)
Interleave, preload duration : 192 ms

Audio #2
ID : 2
Format : AC-3
Format/Info : Audio Coding 3
Mode extension : CM (complete main)
Format settings, Endianness : Big
Codec ID : 2000
Duration : 2h 1mn
Bit rate mode : Constant
Bit rate : 160 Kbps
Channel(s) : 2 channels
Channel positions : Front: L R
Sampling rate : 48.0 KHz
Bit depth : 16 bits
Compression mode : Lossy
Stream size : 139 MiB (7%)
Alignment : Aligned on interleaves
Interleave, duration : 64 ms (1.60 video frames)
Interleave, preload duration : 192 ms







   Похожие торренты   Торрент   Размер 
В этой теме нет новых непрочитанных сообщений. Ветер крепчает / Kaze Tachinu / The Wind Rises (2013) BDRip от Stranik 2.0 | D

61 | 22

1.99 ГБ

В этой теме нет новых непрочитанных сообщений. Ветер крепчает / Kaze Tachinu / The Wind Rises (2013) BDRip 720p

321 | 31

5.27 ГБ

В этой теме нет новых непрочитанных сообщений. Ветер крепчает / Kaze Tachinu / The Wind Rises (2013) BDRip 1080p

449 | 67

12.12 ГБ

В этой теме нет новых непрочитанных сообщений. Ветер крепчает / The Wind Rises / Kaze tachinu (2013) BDRip 720p от HQ-ViDEO

198 | 56

4.65 ГБ

В этой теме нет новых непрочитанных сообщений. Ветер крепчает / Kaze Tachinu / The Wind Rises (2013) BDRip-AVC от HELLYWOOD | Лицензия

186 | 26

2.18 ГБ

В этой теме нет новых непрочитанных сообщений. Ветер крепчает / Kaze tachinu (2013) DVDRip от New-Team | D | лицензия

244 | 95

749.69 МБ

В этой теме нет новых непрочитанных сообщений. Ветер крепчает / Kaze tachinu (2013) DVDRip от New-Team | D | лицензия

1256 | 304

1.46 ГБ




Вы не можете начинать темы
Вы не можете отвечать на сообщения
Вы не можете редактировать свои сообщения
Вы не можете удалять свои сообщения
Вы не можете добавлять вложения

Перейти:  
Для Мосгорсуда, Роскомнадзора и рекламодателей: mosgorsud-torrent[собачка]yandex.ru
 Вход
ppkBB3cker v.2 © 2008-2014 @ PPK
[ Time : 0.060s | 16 Queries | GZIP : Off ]

cron