img image001 image001 image001 image001 image001 image001 image001 image001 image001 image001 image001 image001 image001 image001 image001

Planets Sun Sun Sun
Статистика раздачи
Автор: Nickolas3434 | Размер: 1.97 ГБ | Добавлен: 28 апр 2014
Раздают: 98    Качают: 8
Скачать торрент
Скачать торрент
Описание торрента

СообщениеДобавлено: 28 апр 2014 

Информация о фильме

Название : Волчьи дети Амэ и Юки
Оригинальное название : Ookami Kodomo no Ame to Yuki / The Wolf Children Ame and Yuki / おおかみこどもの雨と雪
Год выхода : 2012
Жанр : Драма, фантастика, повседневность
Режиссер : Мамору Хосода
Роли озвучивали : Кумико Асо, Мэгуми Хаясибара, Такума Хираока, Амон Кабе, Моне Камисираиси, Томие Катаока, Хару Куроки, Аои Миядзаки, Тадаси Накамура, Юкито Нисии



Описание : Юки и Амэ — только с виду обычные дети, которым должны быть нипочем тяготы окружающего мира. Когда погибает их отец, последний представитель древнего рода оборотней, их матери — обыкновенной девушке, когда-то влюбившейся в человека, оказавшегося волком — приходится переехать подальше от большого города и начать все сначала.
#77

Страна : Япония
Производство : Studio Chizu
Продолжительность : 01:57:21
Перевод : Профессиональный (полное дублирование) [Reanimedia]
Автор рипа и релиза :
Файл
Формат видео : AVI
Качество : BDRip (исходник: Blu-ray disc, спасибо rainbow.n)

Видео : XviD, 720x400 (16:9), 23.976 fps, ~1757 Kbps
Аудио 1: Русский, AC3, 320 Кбит/с, 48.0 Hz, 6 ch (в составе контейнера)
Аудио 2: Японский, AC3, 320 Кбит/с, 48.0 Hz, 6 ch (в составе контейнера)
Субтитры (srt): Русские [Reanimedia], Английские (внешним файлом)








General
Complete name : E:/Torrent_2/Ookami Kodomo no Ame to Yuki (2012, XviD BDRip, RUS JAP+SUB) [Stranik 2.0]/Ookami Kodomo no Ame to Yuki (2012, XviD BDRip, RUS JAP+SUB) [Stranik 2.0].avi
Format : AVI
Format/Info : Audio Video Interleave
Format profile : OpenDML
Format settings : rec
File size : 1.97 GiB
Duration : 1h 57mn
Overall bit rate : 2 402 Kbps
Writing application : AVI-Mux GUI 1.17.8.3, Feb 16 201019:42:50

Video
ID : 0
Format : MPEG-4 Visual
Format profile : Advanced Simple@L5
Format settings, BVOP : Yes
Format settings, QPel : No
Format settings, GMC : No warppoints
Format settings, Matrix : Default (H.263)
Codec ID : XVID
Codec ID/Hint : XviD
Duration : 1h 57mn
Bit rate : 1 757 Kbps
Width : 720 pixels
Height : 400 pixels
Display aspect ratio : 16:9
Frame rate : 23.976 fps
Color space : YUV
Chroma subsampling : 4:2:0
Bit depth : 8 bits
Scan type : Progressive
Compression mode : Lossy
Bits/(Pixel*Frame) : 0.254
Stream size : 1.44 GiB (73%)
Writing library : XviD 1.2.1 (UTC 2008-12-04)

Audio #1
ID : 1
Format : AC-3
Format/Info : Audio Coding 3
Mode extension : CM (complete main)
Format settings, Endianness : Big
Codec ID : 2000
Duration : 1h 57mn
Bit rate mode : Constant
Bit rate : 320 Kbps
Channel(s) : 6 channels
Channel positions : Front: L C R, Side: L R, LFE
Sampling rate : 48.0 KHz
Bit depth : 16 bits
Compression mode : Lossy
Stream size : 268 MiB (13%)
Alignment : Aligned on interleaves
Interleave, duration : 64 ms (1.54 video frames)
Interleave, preload duration : 192 ms

Audio #2
ID : 2
Format : AC-3
Format/Info : Audio Coding 3
Mode extension : CM (complete main)
Format settings, Endianness : Big
Codec ID : 2000
Duration : 1h 57mn
Bit rate mode : Constant
Bit rate : 320 Kbps
Channel(s) : 6 channels
Channel positions : Front: L C R, Side: L R, LFE
Sampling rate : 48.0 KHz
Bit depth : 16 bits
Compression mode : Lossy
Stream size : 268 MiB (13%)
Alignment : Aligned on interleaves
Interleave, duration : 64 ms (1.54 video frames)
Interleave, preload duration : 192 ms







   Похожие торренты   Торрент   Размер 
В этой теме нет новых непрочитанных сообщений. Волчьи дети Амэ и Юки / Ookami Kodomo no Ame to Yuki / The Wolf Children Ame and Yuki (2012) BDRip 720p от Мифоград | L2

0 | 4

3.4 ГБ

В этой теме нет новых непрочитанных сообщений. Волчьи дети Амэ и Юки / Ookami Kodomo no Ame to Yuki / The Wolf Children Ame and Yuki (2012) BDRip 720p от Leonardo and Scarabey

99 | 28

2.14 ГБ

В этой теме нет новых непрочитанных сообщений. Волчьи дети Амэ и Юки / Ookami kodomo no Ame to Yuki (2012) BDRip 720p

268 | 49

3.35 ГБ

В этой теме нет новых непрочитанных сообщений. Волчьи дети Амэ и Юки / Ookami kodomo no Ame to Yuki (2012) BDRip 1080p

385 | 34

9.68 ГБ

В этой теме нет новых непрочитанных сообщений. OST - Волчьи дети Амэ и Юки / Ookami Kodomo no Ame to Yuki (2012) MP3

1 | 1

282.55 МБ

В этой теме нет новых непрочитанных сообщений. Волчьи дети / Wolfskinder (2013) HDTVRip | L 1

197 | 45

1.34 ГБ

В этой теме нет новых непрочитанных сообщений. Исчезновение Юки Нагато / The Disappearance of Nagato Yuki-chan / Nagato Yuki-chan no Shoushitsu [01-11 из 24] (2015) HDTVRip 720p | AniDub

9 | 2

3.36 ГБ




Вы не можете начинать темы
Вы не можете отвечать на сообщения
Вы не можете редактировать свои сообщения
Вы не можете удалять свои сообщения
Вы не можете добавлять вложения

Перейти:  
Для Мосгорсуда, Роскомнадзора и рекламодателей: mosgorsud-torrent[собачка]yandex.ru
 Вход
ppkBB3cker v.2 © 2008-2014 @ PPK
[ Time : 0.060s | 18 Queries | GZIP : Off ]

Торрент трекер RUTOR.IN, Не можете зайти на rutor.org? Какой новый адрес рутор? Какое зеркало рутор? Не работает rutor.org и зеркала? Тогда наш торрент специально для вас. Rutor.in неофициальное зеркало rutor. В случае если у Вас заблокирован rutor или вдруг Вы не можете на него зайти, то Вы без труда сможете скачать бесплатно и без рекламы последние новинки кино, игр, сериалов и прочего у нас, на Rutor.in. Не нужно использовать прокси, чтобы зайти на рутор, достаточно воспользоваться нашим ресурсом. Все новые фильмы, игры, сериалы, книги и музыка за 2013 и 2014 годы через торрент бесплатно. Скачивайте фильмы в хорошем качестве, игры для пк, xbox, playstation без регистрации. У нас вы найдете новые Зарубежные сериалы и Русские сериалы 2013, 2014, 2015 годов. Оставайтесь с нами, качайте любимые фильмы, игры, сериалы, книги и музыку.
cron