img image001 image001 image001 image001 image001 image001 image001 image001 image001 image001 image001 image001 image001 image001 image001 image001

Planets Sun Sun Sun
Статистика раздачи
Автор: Nickolas3434 | Размер: 1.52 ГБ | Добавлен: 28 апр 2014
Раздают: 156    Качают: 32
Скачать торрент
Скачать торрент
Описание торрента

СообщениеДобавлено: 28 апр 2014 

Mass Effect: Утерянный Парагон / Mass Effect: Paragon Lost (2012) BDRip-AVC | iPad | P


Название: Mass Effect: Утерянный Парагон
Оригинальное название: Mass Effect: Paragon Lost
Год выхода: 2012
Жанр: аниме, мультфильм, фантастика, боевик
Режиссер: Ацуси Такэути
В ролях: Лора Бэйли, Джон Бургмейер, Брюс Кэри, Джастин Кук, Терри Доти, Джейсон Дуглас, Кара Эдвардс, Джош Грелл, Тодд Хаберкорн, Джерри Джуэлл

О фильме:
В центре сюжета - начало карьеры офицера Альянса Джеймса Веги. Джеймс приходит в элитный отряд спецназа Альянса в начале борьбы с таинственной угрозой, известной как Коллекционеры. Состоя на службе в отдалённой звёздной системе, Джеймс Вега и его напарники должны защитить граждан колонии от вторжения неизвестных, которые пытаются похитить людей.



Страна: США, Япония, Канада, Корея Южная
Студия: Bioware, Electronic Arts (EA), FUNimation Entertainment

Продолжительность: 1:34:13
Перевод: Русский профессиональный многоголосый закадровый

Файл
Кодек: H.264
Качество: BDRip-AVC [576p]
Видео: 1024x576 (16:9) at 23.976 fps, AVC at 2000 kbps
Звук:
1: АAС 2.0 132 kbps - Русский профессиональный многоголосый закадровый (RenegateFilm)
2: АAС 2.0 144 kbps - Английский
Субтитры: Отсутствует

General
Complete name : C:CREATE264mod1outMass.Effect-Paragon.Lost.2012.576p.P.m4v
Format : MPEG-4
Codec ID : M4V
File size : 1.52 GiB
Duration : 1h 34mn
Overall bit rate mode : Variable
Overall bit rate : 2 304 Kbps
Movie name : Mass Effect: Утерянный Парагон
Performer : Ацуси Такэути
Genre : Animation & Sci-Fi
ContentType : Short Film
Deion : В центре сюжета - начало карьеры офицера Альянса Джеймса Веги. Джеймс приходит в элитный отряд спецназа Альянса в начале борьбы с таинственной угрозой, известной как Коллекционеры.
Recorded date : UTC 2012-11-29 08:00:00
Encoded date : UTC 2014-04-24 19:08:28
Tagged date : UTC 2014-04-24 19:16:15
Copyright : Bioware, Electronic Arts (EA), FUNimation Entertainment
Cover : Yes
ContentRating : mpaa|PG|200|

Title/Sort : Mass Effect: Paragon Lost
LongDeion : В центре сюжета - начало карьеры офицера Альянса Джеймса Веги. Джеймс приходит в элитный отряд спецназа Альянса в начале борьбы с таинственной угрозой, известной как Коллекционеры. Состоя на службе в отдалённой звёздной системе, Джеймс Вега и его напарники должны защитить граждан колонии от вторжения неизвестных, которые пытаются похитить людей.
AppleStoreCatalogID : 655651
Vendor : Apple:vendor_id:2012-655651

Video
ID : 1
Format : AVC
Format/Info : Advanced Video Codec
Format profile : High@L4.1
Format settings, CABAC : Yes
Format settings, ReFrames : 9 frames
Codec ID : avc1
Codec ID/Info : Advanced Video Coding
Duration : 1h 34mn
Bit rate : 2 017 Kbps
Maximum bit rate : 25.8 Mbps
Width : 1 024 pixels
Height : 576 pixels
Display aspect ratio : 16:9
Frame rate mode : Constant
Frame rate : 23.976 fps
Color space : YUV
Chroma subsampling : 4:2:0
Bit depth : 8 bits
Scan type : Progressive
Bits/(Pixel*Frame) : 0.143
Stream size : 1.33 GiB (88%)
Language : English
Encoded date : UTC 2014-04-24 19:08:28
Tagged date : UTC 2014-04-24 19:08:37
Matrix coefficients : BT.709

Audio #1
ID : 2
Format : AAC
Format/Info : Advanced Audio Codec
Format profile : LC
Codec ID : 40
Duration : 1h 34mn
Bit rate mode : Variable
Bit rate : 132 Kbps
Maximum bit rate : 186 Kbps
Channel(s) : 2 channels
Channel positions : Front: L R
Sampling rate : 48.0 KHz
Compression mode : Lossy
Stream size : 89.8 MiB (6%)
Title : MVO RenegateFilm
Language : Russian
Encoded date : UTC 2014-04-24 19:03:26
Tagged date : UTC 2014-04-24 19:08:37

Audio #2
ID : 3
Format : AAC
Format/Info : Advanced Audio Codec
Format profile : LC
Codec ID : 40
Duration : 1h 34mn
Bit rate mode : Variable
Bit rate : 144 Kbps
Maximum bit rate : 191 Kbps
Channel(s) : 2 channels
Channel positions : Front: L R
Sampling rate : 48.0 KHz
Compression mode : Lossy
Stream size : 95.1 MiB (6%)
Title : Original
Language : English
Encoded date : UTC 2014-04-24 19:06:49
Tagged date : UTC 2014-04-24 19:08:37


Sort Name: Mass Effect: Paragon Lost
XID: Apple:vendor_id:2012-655651
Content ID: 655651
Copyright: Bioware, Electronic Arts (EA), FUNimation Entertainment
ScreenWriters: Генри Гилрой
Producers: Джастин Кук, Манами Фукава, Ген Фукунага
Director: Ацуси Такэути
Cast: Лора Бэйли, Джон Бургмейер, Брюс Кэри, Джастин Кук, Терри Доти, Джейсон Дуглас, Кара Эдвардс, Джош Грелл, Тодд Хаберкорн, Джерри Джуэлл / Laura Bailey (Kamille), Bruce Carey (Admiral Hackett), Justin Cook (Brood), Jason Douglas (Archuk)
Rating: PG
Long Deion: В центре сюжета - начало карьеры офицера Альянса Джеймса Веги. Джеймс приходит в элитный отряд спецназа Альянса в начале борьбы с таинственной угрозой, известной как Коллекционеры. Состоя на службе в отдалённой звёздной системе, Джеймс Вега и его напарники должны защитить граждан колонии от вторжения неизвестных, которые пытаются похитить людей.
Deion: В центре сюжета - начало карьеры офицера Альянса Джеймса Веги. Джеймс приходит в элитный отряд спецназа Альянса в начале борьбы с таинственной угрозой, известной как Коллекционеры.
Release Date: 2012-11-29T08:00:00Z
Genre: Animation & Sci-Fi
Artist: Ацуси Такэути
Name: Mass Effect: Утерянный Парагон

x264 [info]: frame I:1072 Avg QP:13.18 size:123719
x264 [info]: frame P:28549 Avg QP:17.97 size: 27681
x264 [info]: frame B:105920 Avg QP:20.45 size: 4741
x264 [info]: consecutive B-frames: 3.6% 4.0% 5.7% 14.8% 11.8% 31.6% 3.9% 3.1% 2.6% 14.3% 1.2% 1.1% 2.3%
x264 [info]: mb I I16..4: 16.6% 35.6% 47.9%
x264 [info]: mb P I16..4: 4.6% 9.9% 5.1% P16..4: 26.1% 22.0% 12.0% 4.4% 1.6% skip:14.3%
x264 [info]: mb B I16..4: 0.4% 0.9% 0.3% B16..8: 28.0% 8.9% 1.5% direct: 2.6% skip:57.3% L0:47.9% L1:43.3% BI: 8.8%
x264 [info]: 8x8 transform intra:49.2% inter:35.7%
x264 [info]: coded y,uvDC,uvAC intra: 59.8% 63.2% 42.0% inter: 10.8% 8.5% 4.4%
x264 [info]: i16 v,h,dc,p: 10% 12% 13% 66%
x264 [info]: i8 v,h,dc,ddl,ddr,vr,hd,vl,hu: 10% 12% 13% 9% 12% 10% 12% 10% 14%
x264 [info]: i4 v,h,dc,ddl,ddr,vr,hd,vl,hu: 13% 12% 21% 8% 10% 8% 9% 8% 10%
x264 [info]: i8c dc,h,v,p: 28% 32% 16% 24%
x264 [info]: Weighted P-Frames: Y:6.5% UV:4.2%
x264 [info]: ref P L0: 52.9% 5.7% 17.5% 7.5% 5.3% 4.0% 3.3% 1.8% 1.7% 0.3% 0.0%
x264 [info]: ref B L0: 70.4% 11.8% 7.1% 3.4% 2.7% 2.1% 1.7% 0.8%
x264 [info]: ref B L1: 90.7% 9.3%
x264 [info]: kb/s:2016.58




   Похожие торренты   Торрент   Размер 
В этой теме нет новых непрочитанных сообщений. Mass Effect 3 [4.01] [Cobra ODE / E3 ODE PRO / 3Key] (2012) PS3

34 | 14

14.03 ГБ

В этой теме нет новых непрочитанных сообщений. Mass Effect 3 + All DLC (2012) PC | RePack от z10yded

2876 | 338

12.51 ГБ

В этой теме нет новых непрочитанных сообщений. Mass Effect: Andromeda [v 1.005] (2017) PC | Патч

80 | 5

2.57 ГБ

В этой теме нет новых непрочитанных сообщений. Mass Effect [v 1.02 + 2 DLC] (2008) PC | RePack от FitGirl

380 | 49

4.91 ГБ

В этой теме нет новых непрочитанных сообщений. Mass Effect: Andromeda (2017) PC | Лицензия

61 | 21

51.38 ГБ

В этой теме нет новых непрочитанных сообщений. Mass Effect 2 [3.50] [Cobra ODE / E3 ODE PRO / 3Key] (2011) PS3

66 | 23

12.15 ГБ

В этой теме нет новых непрочитанных сообщений. Mass Effect 2 (2010) PC | Repack от R.G. Games

3389 | 366

8.64 ГБ




Вы не можете начинать темы
Вы не можете отвечать на сообщения
Вы не можете редактировать свои сообщения
Вы не можете удалять свои сообщения
Вы не можете добавлять вложения

Перейти:  
 Вход
ppkBB3cker v.2 © 2008-2014 @ PPK
[ Time : 0.405s | 20 Queries | GZIP : Off ]

cron