img image001 image001 image001 image001 image001 image001 image001 image001 image001 image001 image001 image001 image001 image001 image001

Planets Sun Sun Sun
Статистика раздачи
Автор: Nickolas3434 | Размер: 1.98 ГБ | Добавлен: 28 апр 2014
Раздают: 37    Качают: 9
Скачать торрент
Скачать торрент
Описание торрента

СообщениеДобавлено: 28 апр 2014 

Информация о фильме
Название: Воспоминания одного пилота / Принцесса и пилот
Оригинальное название: Toaru Hikuushi e no Tsuioku
Год выпуска: 2011
Жанр: приключения, война, романтика, драма
Режиссер: Сисидо Дзюн / Shishido Jun
Автор оригинала: Инумура Короку / Inumura Koroku

Описание:

История о молодом пилоте Чарльзе Карино, служащем наёмником в имперских войсках Левамм. Казалось бы, живущему спокойной жизнью парне, судьба поворачивается таким образом, что ему приходится рисковать своей жизнью на особо-секретном задании. Цель его миссии заключается в сопровождении княжеской невесты, Леди Фаны де Морал в столицу, на пути к которой во всю идет война за земли. Воюющим войскам ополчения "Аматсавиан" удалось перехватить детали задания. Следовательно из-за большой опасности план придется сменить... © World Art
Рейтинг на WorldArt: | Рейтинг на AniDB: 6.19 из 10 | Рейтинг на MyAnimeList: 7.80 из 10


Страна: Япония
Тип: полнометражный фильм, 100 мин.
Студия:
Перевод: Любительский (двухголосый закадровый)
Озвучено: loster01 & Emeri
Перевод: Semyon44 & Mirron
Субтитры: ASS, RU - внешние
Файл
Качество: BDRip
Тип релиза: Без хардсаба
Формат видео: AVI
Релиз/Автор рипа: Sensetivity
Видео: XVID, 720x384, 2000 kbps, 23.976
Аудио RU: AC3, 448 kbps, 48 kHz, 6 каналов
Аудио JP: AC3, 384 kbps, 48 kHz, 6 каналов

Код:
General
Complete name                            : F:принцеса.avi
Format                                   : AVI
Format/Info                              : Audio Video Interleave
File size                                : 1.98 GiB
Duration                                 : 1h 39mn
Overall bit rate                         : 2 844 Kbps
Writing application                      : VirtualDubMod 1.5.10.3 | www.virtualdub-fr.org || (build 2550/release)
Writing library                          : VirtualDubMod build 2550/release

Video
ID                                       : 0
Format                                   : MPEG-4 Visual
Format profile                           : Advanced Simple@L5
Format settings, BVOP                    : 2
Format settings, QPel                    : No
Format settings, GMC                     : No warppoints
Format settings, Matrix                  : Custom
Codec ID                                 : XVID
Codec ID/Hint                            : XviD
Duration                                 : 1h 39mn
Bit rate                                 : 1 998 Kbps
Width                                    : 720 pixels
Height                                   : 384 pixels
Display aspect ratio                     : 1.875
Frame rate                               : 23.976 fps
Color space                              : YUV
Chroma subsampling                       : 4:2:0
Bit depth                                : 8 bits
Scan type                                : Progressive
Compression mode                         : Lossy
Bits/(Pixel*Frame)                       : 0.301
Stream size                              : 1.39 GiB (70%)
Writing library                          : XviD 1.2.1 (UTC 2008-12-04)

Audio #1
ID                                       : 1
Format                                   : AC-3
Format/Info                              : Audio Coding 3
Mode extension                           : CM (complete main)
Codec ID                                 : 2000
Duration                                 : 1h 39mn
Bit rate mode                            : Constant
Bit rate                                 : 448 Kbps
Channel(s)                               : 6 channels
Channel positions                        : Front: L C R, Side: L R, LFE
Sampling rate                            : 48.0 KHz
Bit depth                                : 16 bits
Compression mode                         : Lossy
Stream size                              : 319 MiB (16%)
Alignment                                : Split accross interleaves
Interleave, duration                     : 42 ms (1.00 video frame)
Interleave, preload duration             : 500 ms
Title                                    : Русский

Audio #2
ID                                       : 2
Format                                   : AC-3
Format/Info                              : Audio Coding 3
Mode extension                           : CM (complete main)
Codec ID                                 : 2000
Duration                                 : 1h 39mn
Bit rate mode                            : Constant
Bit rate                                 : 384 Kbps
Channel(s)                               : 6 channels
Channel positions                        : Front: L C R, Side: L R, LFE
Sampling rate                            : 48.0 KHz
Bit depth                                : 16 bits
Compression mode                         : Lossy
Stream size                              : 274 MiB (14%)
Alignment                                : Split accross interleaves
Interleave, duration                     : 42 ms (1.00 video frame)
Interleave, preload duration             : 500 ms
Title                                    : Японский




   Похожие торренты   Торрент   Размер 
В этой теме нет новых непрочитанных сообщений. Воспоминания одного пилота / Принцесса и пилот / Toaru Hikuushi e no Tsuioku (2011) BDRip 720p | L2 | 10 bit

22 | 10

4.89 ГБ

В этой теме нет новых непрочитанных сообщений. Бродяга Кэнсин: Воспоминания / Rurouni Kenshin: Meiji Kenkaku Romantan: Tsuioku Hen (1999) BDRip 720p от Leonardo and Scarabey

54 | 7

2.45 ГБ

В этой теме нет новых непрочитанных сообщений. Песня любви одному пилоту / Toaru Hikuushi e no Koiuta [TV] [01-13 из 13] (2014) WEBRip 720p | AniFilm

36 | 33

4.42 ГБ

В этой теме нет новых непрочитанных сообщений. Песня любви одному пилоту / Toaru Hikuushi e no Koiuta [TV] [01-06 из 12] (2014) WEBRip 720p | AniFilm

24 | 11

2.03 ГБ

В этой теме нет новых непрочитанных сообщений. Песня любви одному пилоту / Toaru Hikuushi e no Koiuta [TV] [01-07 из 12] (2014) WEBRip 720p | AniFilm

18 | 7

2.37 ГБ

В этой теме нет новых непрочитанных сообщений. Песня любви одному пилоту / Toaru Hikuushi e no Koiuta [TV] [01-05 из 12] (2014) WEBRip 720p | AniFilm

39 | 11

1.69 ГБ

В этой теме нет новых непрочитанных сообщений. Песня любви одному пилоту / Toaru Hikuushi e no Koiuta [TV] [01-12 из 13] (2014) WEBRip 720p | AniFilm

19 | 5

4.08 ГБ




Вы не можете начинать темы
Вы не можете отвечать на сообщения
Вы не можете редактировать свои сообщения
Вы не можете удалять свои сообщения
Вы не можете добавлять вложения

Перейти:  
Для Мосгорсуда, Роскомнадзора и рекламодателей: mosgorsud-torrent[собачка]yandex.ru
 Вход
ppkBB3cker v.2 © 2008-2014 @ PPK
[ Time : 0.035s | 18 Queries | GZIP : Off ]

Торрент трекер RUTOR.IN, Не можете зайти на rutor.org? Какой новый адрес рутор? Какое зеркало рутор? Не работает rutor.org и зеркала? Тогда наш торрент специально для вас. Rutor.in неофициальное зеркало rutor. В случае если у Вас заблокирован rutor или вдруг Вы не можете на него зайти, то Вы без труда сможете скачать бесплатно и без рекламы последние новинки кино, игр, сериалов и прочего у нас, на Rutor.in. Не нужно использовать прокси, чтобы зайти на рутор, достаточно воспользоваться нашим ресурсом. Все новые фильмы, игры, сериалы, книги и музыка за 2013 и 2014 годы через торрент бесплатно. Скачивайте фильмы в хорошем качестве, игры для пк, xbox, playstation без регистрации. У нас вы найдете новые Зарубежные сериалы и Русские сериалы 2013, 2014, 2015 годов. Оставайтесь с нами, качайте любимые фильмы, игры, сериалы, книги и музыку.
cron