img image001 image001 image001 image001 image001 image001 image001 image001 image001 image001 image001 image001 image001 image001 image001

Planets Sun Sun Sun
Статистика раздачи
Автор: Nickolas3434 | Размер: 6.62 ГБ | Добавлен: 25 май 2014
Раздают: 60    Качают: 5
Скачать торрент
Скачать торрент
Описание торрента

СообщениеДобавлено: 25 май 2014 

Описание
Название: Патэма наоборот
Оригинальное название: サカサマのパテマ
Другие названия: Patema Inverted / Sakasama no Patema
Год выхода: 2013
Жанр: приключения, фантастика
Режиссер: Ёсиура Ясухиро

Описание: В результате некой произошедшей в прошлом катастрофы человечество разделилось на два народа. Для первого народа гравитация действует наоборот и его представители, а также используемые ими вещи падают в небеса. Однако, эти люди живут под землей, поэтому большой угрозы для них эта особенность не представляет. Для второго народа гравитация действует обычным образом и он живет на поверхности земли. Жизни этих двух народов практически не пересекаются и о существовании друг друга большая часть их представителей не знает. Однако, у живущих на поверхности людей есть история о том что в прошлом грешники улетели на небеса. Поэтому в обществе считается недопустимым смотреть на небо и следует направлять свой взгляд на землю.


Официальный сайт

Выпущено: Purple Cow Studios Japan
Продолжительность: 1 ч. 38 м.
Перевод: субтитры

Файл
Качество: BDRip
Тип релиза: Без хардсаба
Формат видео: MKV
Наличие линковки: Нет
Релиз/Автор рипа: PublicHD
Видео: x264, 1920x1080, 8000 Кбит/сек, 23.976 кадра/сек, 8 бит
Аудио: DTS, 1509 Кбит/сек, 6 каналов, 24 бит, 48,0 КГц Язык: Японский; Озвучка: оригинальная многоголосая
Субтитры: ASS, внешние; Язык субтитров: русский; Перевод: Шейди (Sheydi Renger)
Субтитры 2: ASS, встроенные; Язык субтитров: Японский
Субтитры 3: ASS, встроенные; Язык субтитров: Китайский
Код:
MediaInfo 0.7.69
Общее
Уникальный идентификатор                 : 202060058511975383542128660850244560345 (0x98035A0AAB14695383901A66D16BA5D9)
Формат                                   : Matroska
Версия формата                           : Version 1
Размер файла                             : 6,62 Гбайт
Продолжительность                        : 1 ч. 38 м.
Общий поток                              : 9589 Кбит/сек
Дата кодирования                         : UTC 2014-05-03 03:38:35
Программа кодирования                    : mkvmerge v2.2.0 ('Turn It On Again') built on Mar  4 2008 12:58:26
Библиотека кодирования                   : libebml v0.7.7 + libmatroska v0.8.1
Attachment                               : Yes / Yes / Yes / Yes / Yes / Yes / Yes / Yes / Yes

Видео
Идентификатор                            : 1
Формат                                   : AVC
Формат/Информация                        : Advanced Video Codec
Профиль формата                          : High@L4.1
Параметр CABAC формата                   : Да
Параметр ReFrames формата                : 4 кадра
Идентификатор кодека                     : V_MPEG4/ISO/AVC
Продолжительность                        : 1 ч. 38 м.
Битрейт                                  : 8000 Кбит/сек
Ширина                                   : 1920 пикселей
Высота                                   : 1080 пикселей
Соотношение сторон                       : 16:9
Режим частоты кадров                     : Постоянный
Частота кадров                           : 23,976 кадра/сек
Цветовое пространство                    : YUV
Субдискретизация насыщенности            : 4:2:0
Битовая глубина                          : 8 бит
Тип развёртки                            : Прогрессивная
Бит/(Пиксели*Кадры)                      : 0.161
Размер потока                            : 5,45 Гбайт (82%)
Библиотека кодирования                   : x264 core 130 r2273 b3065e6
Настройки программы                      : cabac=1 / ref=4 / deblock=1:-1:-1 / analyse=0x3:0x133 / me=umh / subme=11 / psy=1 / psy_rd=0.60:0.00 / mixed_ref=1 / me_range=64 / chroma_me=1 / trellis=2 / 8x8dct=1 / cqm=0 / deadzone=21,11 / fast_pskip=0 / chroma_qp_offset=-2 / threads=12 / lookahead_threads=3 / sliced_threads=0 / nr=0 / decimate=1 / interlaced=0 / bluray_compat=0 / constrained_intra=0 / bframes=10 / b_pyramid=2 / b_adapt=2 / b_bias=0 / direct=3 / weightb=1 / open_gop=0 / weightp=2 / keyint=250 / keyint_min=23 / scenecut=40 / intra_refresh=0 / rc_lookahead=60 / rc=2pass / mbtree=0 / bitrate=8000 / ratetol=1.0 / qcomp=0.70 / qpmin=0 / qpmax=69 / qpstep=4 / cplxblur=20.0 / qblur=0.5 / vbv_maxrate=40000 / vbv_bufsize=30000 / nal_hrd=none / ip_ratio=1.40 / pb_ratio=1.30 / aq=1:0.80
Язык                                     : English
Default                                  : Да
Forced                                   : Нет

Аудио
Идентификатор                            : 2
Формат                                   : DTS
Формат/Информация                        : Digital Theater Systems
Режим                                    : 16
Параметр Endianness формата              : Big
Идентификатор кодека                     : A_DTS
Продолжительность                        : 1 ч. 38 м.
Вид битрейта                             : Постоянный
Битрейт                                  : 1509 Кбит/сек
Каналы                                   : 6 каналов
Расположение каналов                     : Front: L C R, Side: L R, LFE
Частота                                  : 48,0 КГц
Битовая глубина                          : 24 бит
Метод сжатия                             : С потерями
Размер потока                            : 1,04 Гбайт (16%)
Default                                  : Да
Forced                                   : Нет

Текст #1
Идентификатор                            : 3
Формат                                   : ASS
Идентификатор кодека                     : S_TEXT/ASS
Идентификатор кодека/Информация          : Advanced Sub Station Alpha
Метод сжатия                             : Без потерь
Язык                                     : Japanese
Default                                  : Да
Forced                                   : Нет

Текст #2
Идентификатор                            : 4
Формат                                   : ASS
Идентификатор кодека                     : S_TEXT/ASS
Идентификатор кодека/Информация          : Advanced Sub Station Alpha
Метод сжатия                             : Без потерь
Язык                                     : Chinese
Default                                  : Нет
Forced                                   : Нет





Семпл

Релиз от: PublicHD
Доп. информация: в контейнере есть шрифты для корректного отображения встроенных субтитров, русские субтитры подправлены мной по орфографии



   Похожие торренты   Торрент   Размер 
В этой теме нет новых непрочитанных сообщений. Патэма наоборот / Sakasama no Patema / Patema Inverted (2013) BDRip-1080p | L

121 | 6

7.3 ГБ

В этой теме нет новых непрочитанных сообщений. Патэма наоборот / Sakasama no Patema / Patema Inverted (2013) BDRip-1080p | D

31 | 41

9.64 ГБ

В этой теме нет новых непрочитанных сообщений. Патэма наоборот / Sakasama no Patema / Patema Inverted (2013) BDRip-720p | L

182 | 12

2.17 ГБ

В этой теме нет новых непрочитанных сообщений. Патэма наоборот / Sakasama no Patema / Patema Inverted (2013) BDRip | L

744 | 42

1.55 ГБ

В этой теме нет новых непрочитанных сообщений. OST - Патэма наоборот / Patema Inverted / Sakasama no Patema (2014) MP3

30 | 9

159.68 МБ

В этой теме нет новых непрочитанных сообщений. Перевёрнутая Патэма / Patema Inverted / Sakasama no Patema (2014) BDRip 720p, BDRip 1080p | AniRigin

142 | 81

7.2 ГБ

В этой теме нет новых непрочитанных сообщений. Патэма наоборот / Sakasama no Patema (2013) BDRip-AVC от HQCLUB

10 | 2

2.21 ГБ




Вы не можете начинать темы
Вы не можете отвечать на сообщения
Вы не можете редактировать свои сообщения
Вы не можете удалять свои сообщения
Вы не можете добавлять вложения

Перейти:  
Для Мосгорсуда, Роскомнадзора и рекламодателей: mosgorsud-torrent[собачка]yandex.ru
 Вход
ppkBB3cker v.2 © 2008-2014 @ PPK
[ Time : 0.627s | 18 Queries | GZIP : Off ]

Торрент трекер RUTOR.IN, Не можете зайти на rutor.org? Какой новый адрес рутор? Какое зеркало рутор? Не работает rutor.org и зеркала? Тогда наш торрент специально для вас. Rutor.in неофициальное зеркало rutor. В случае если у Вас заблокирован rutor или вдруг Вы не можете на него зайти, то Вы без труда сможете скачать бесплатно и без рекламы последние новинки кино, игр, сериалов и прочего у нас, на Rutor.in. Не нужно использовать прокси, чтобы зайти на рутор, достаточно воспользоваться нашим ресурсом. Все новые фильмы, игры, сериалы, книги и музыка за 2013 и 2014 годы через торрент бесплатно. Скачивайте фильмы в хорошем качестве, игры для пк, xbox, playstation без регистрации. У нас вы найдете новые Зарубежные сериалы и Русские сериалы 2013, 2014, 2015 годов. Оставайтесь с нами, качайте любимые фильмы, игры, сериалы, книги и музыку.