img image001 image001 image001 image001 image001 image001 image001 image001 image001 image001 image001 image001 image001 image001 image001

Planets Sun Sun Sun
Статистика раздачи
Автор: Nickolas3434 | Размер: 1.45 ГБ | Добавлен: 25 май 2014
Раздают: 83    Качают: 10
Скачать торрент
Скачать торрент
Описание торрента

СообщениеДобавлено: 25 май 2014 

Страна: Япония
Жанр: аниме, мультфильм, драма, мелодрама, семейный
Год выпуска: 1977
Продолжительность: 00:58:35
Перевод: Профессиональный (полное дублирование) + Английский


Режиссер: Юджи Эндо / Yuji Endo, Нобутака Нисидзава / Nobutaka Nishizawa


Описание: В недобрый час вдовый король встречает во время охоты в лесу старую колдунью, которая хитростью женит его на своей дочери, тоже колдунье. Шестерых сыновей короля, братьев-принцев, мачеха превращает в лебедей. Их сестра Элиза видела, что произошло и, спасаясь, убежала в лес. Чтобы разрушить колдовство злой королевы-колдуньи, она молча плетет братьям рубашки-кольчуги из крапивы - по рубашке в год. Чтобы спасти братьев, Элиза не смеет заговорить ни когда встречает полюбившего ее прекрасного молодого короля, ни даже когда коварная ведьма обвиняет ее в колдовстве, и ей грозит костер.





Семпл


Качество: DVDRip
Контейнер: MKV

Видео: AVC, 688x524 @ 978x524 (1,85:1), 3154 kbps, 25 fps, 0,350 bpp
Аудио №1: русский / AC3 / 2.0 / 48 kHz / 192 kbps
Аудио №2: английский / AC3 / 2.0 / 48 kHz / 192 kbps
Навигация по главам: есть



Формат : Matroska
Версия формата : Version 2
Размер файла : 1,45 Гбайт
Продолжительность : 58 м.
Общий поток : 3540 Кбит/сек
Название фильма : = Принцы-лебеди / The Wild Swans / Sekai Meisaku Douwa - Hakuchou no Ouj DVDRip by SC Kosmos =
Дата кодирования : UTC 2014-05-10 09:08:49
Программа кодирования : mkvmerge v3.3.0 ('Language') gebaut am Mar 24 2010 14:59:24
Библиотека кодирования : libebml v0.8.0 + libmatroska v0.9.0

Видео
Идентификатор : 1
Формат : AVC
Формат/Информация : Advanced Video Codec
Профиль формата : High@L4.1
Параметр CABAC формата : Да
Параметр ReFrames формата : 8 кадров
Идентификатор кодека : V_MPEG4/ISO/AVC
Продолжительность : 58 м.
Битрейт : 3154 Кбит/сек
Ширина : 688 пикселей
Высота : 524 пикселя
Соотношение сторон : 1,85:1
Соотношение сторон в оригинале : 1,85:1
Режим частоты кадров : Постоянный
Частота кадров : 25,000 кадров/сек
Цветовое пространство : YUV
Субдискретизация насыщенности : 4:2:0
Битовая глубина : 8 бит
Тип развёртки : Прогрессивная
Бит/(Пиксели*Кадры) : 0.350
Размер потока : 1,26 Гбайт (87%)
Заголовок : Принцы-лебеди / The Wild Swans / Sekai Meisaku Douwa - Hakuchou no Ouj DVDRip by SC Kosmos
Библиотека кодирования : x264 core 142 r2409 d6b4e63
Настройки программы : cabac=1 / ref=8 / deblock=1:0:0 / analyse=0x3:0x113 / me=umh / subme=11 / psy=1 / psy_rd=0.40:0.00 / mixed_ref=1 / me_range=32 / chroma_me=1 / trellis=2 / 8x8dct=1 / cqm=0 / deadzone=21,11 / fast_pskip=0 / chroma_qp_offset=-2 / threads=12 / lookahead_threads=1 / sliced_threads=0 / nr=0 / decimate=1 / interlaced=0 / bluray_compat=0 / constrained_intra=0 / bframes=10 / b_pyramid=2 / b_adapt=1 / b_bias=0 / direct=3 / weightb=1 / open_gop=0 / weightp=2 / keyint=250 / keyint_min=25 / scenecut=40 / intra_refresh=0 / rc_lookahead=40 / rc=2pass / mbtree=1 / bitrate=3154 / ratetol=1.0 / qcomp=0.60 / qpmin=0 / qpmax=69 / qpstep=4 / cplxblur=20.0 / qblur=0.5 / ip_ratio=1.40 / aq=1:0.60
Язык : Japanese
Default : Нет
Forced : Нет

Аудио #1
Идентификатор : 2
Формат : AC-3
Формат/Информация : Audio Coding 3
Расширение режима : CM (complete main)
Параметр Endianness формата : Big
Идентификатор кодека : A_AC3
Продолжительность : 58 м.
Вид битрейта : Постоянный
Битрейт : 192 Кбит/сек
Каналы : 2 канала
Расположение каналов : Front: L R
Частота : 48,0 КГц
Битовая глубина : 16 бит
Метод сжатия : С потерями
Размер потока : 80,5 Мбайт (5%)
Язык : Russian
Default : Да
Forced : Да

Аудио #2
Идентификатор : 3
Формат : AC-3
Формат/Информация : Audio Coding 3
Расширение режима : CM (complete main)
Параметр Endianness формата : Big
Идентификатор кодека : A_AC3
Продолжительность : 58 м.
Вид битрейта : Постоянный
Битрейт : 192 Кбит/сек
Каналы : 2 канала
Расположение каналов : Front: L R
Частота : 48,0 КГц
Битовая глубина : 16 бит
Метод сжатия : С потерями
Размер потока : 80,5 Мбайт (5%)
Язык : English
Default : Нет
Forced : Нет

Меню
00:00:00.000 : en:Chapter 01
00:05:00.200 : en:Chapter 02
00:09:57.080 : en:Chapter 03
00:12:13.160 : en:Chapter 04
00:15:09.120 : en:Chapter 05
00:19:39.240 : en:Chapter 06
00:21:45.120 : en:Chapter 07
00:25:50.400 : en:Chapter 08
00:29:48.120 : en:Chapter 09
00:33:20.960 : en:Chapter 10
00:36:24.240 : en:Chapter 11
00:39:26.840 : en:Chapter 12
00:42:10.520 : en:Chapter 13
00:46:42.080 : en:Chapter 14
00:50:01.480 : en:Chapter 15
00:52:53.040 : en:Chapter 16
00:55:24.240 : en:Chapter 17








Исходник - немецкий DVD, присутствуют немецкие хардсабы на песни.



   Похожие торренты   Торрент   Размер 
В этой теме нет новых непрочитанных сообщений. Волшебная лампа Аладдина / Sekai Meisaku Douwa: Aladdin to Mahou no Lamp (1982) VHSRip-AVC | L1

4 | 0

492.05 МБ

В этой теме нет новых непрочитанных сообщений. Русская народная сказка - Гуси-лебеди (1977) PDF от RG Superdetki

25 | 4

81.08 МБ

В этой теме нет новых непрочитанных сообщений. Принцы воздуха / Air Buddies (2006) DVDRip

2 | 6

1.09 ГБ

В этой теме нет новых непрочитанных сообщений. Дикие лебеди (1963) DVDRip

242 | 9

1.04 ГБ

В этой теме нет новых непрочитанных сообщений. Гадкие лебеди (2006) DVDRip

14 | 5

1.37 ГБ

В этой теме нет новых непрочитанных сообщений. Гадкие лебеди (2006) DVDRip-AVC

568 | 24

1.55 ГБ

В этой теме нет новых непрочитанных сообщений. Гадкие лебеди (2006) DVDRip-AVC от ExKinoRay

24 | 2

1.75 ГБ




Вы не можете начинать темы
Вы не можете отвечать на сообщения
Вы не можете редактировать свои сообщения
Вы не можете удалять свои сообщения
Вы не можете добавлять вложения

Перейти:  
Для Мосгорсуда, Роскомнадзора и рекламодателей: mosgorsud-torrent[собачка]yandex.ru
 Вход
ppkBB3cker v.2 © 2008-2014 @ PPK
[ Time : 0.057s | 15 Queries | GZIP : Off ]

Торрент трекер RUTOR.IN, Не можете зайти на rutor.org? Какой новый адрес рутор? Какое зеркало рутор? Не работает rutor.org и зеркала? Тогда наш торрент специально для вас. Rutor.in неофициальное зеркало rutor. В случае если у Вас заблокирован rutor или вдруг Вы не можете на него зайти, то Вы без труда сможете скачать бесплатно и без рекламы последние новинки кино, игр, сериалов и прочего у нас, на Rutor.in. Не нужно использовать прокси, чтобы зайти на рутор, достаточно воспользоваться нашим ресурсом. Все новые фильмы, игры, сериалы, книги и музыка за 2013 и 2014 годы через торрент бесплатно. Скачивайте фильмы в хорошем качестве, игры для пк, xbox, playstation без регистрации. У нас вы найдете новые Зарубежные сериалы и Русские сериалы 2013, 2014, 2015 годов. Оставайтесь с нами, качайте любимые фильмы, игры, сериалы, книги и музыку.
cron