img image001 image001 image001 image001 image001 image001 image001 image001 image001 image001 image001 image001 image001 image001 image001

Planets Sun Sun Sun
Статистика раздачи
Автор: Nickolas3434 | Размер: 1.09 ГБ | Добавлен: 25 май 2014
Раздают: 186    Качают: 12
Скачать торрент
Скачать торрент
Описание торрента

СообщениеДобавлено: 25 май 2014 

Английское название: Avengers Confidential: Black Widow & Punisher
Русское название: Секретные Материалы Мстителей: Черная Вдова и Каратель

Страна: Япония
Студия: Mad House
Год выхода: 11.03.2014

Жанр: приключения
Продолжительность: OVA (1 эп.), 85 мин.

Режиссёр: Симидзу Кэнъити

Описание:
После вмешательства в сверхсекретные миссии ЩИТа Каратель попадает под контроль Черной вдовы. По приказу Ника Фьюри они отправляются на миссию по борьбе с глобальной террористической организацией Левиафан, которая планирует продать украденные у ЩИТа технологии любому, кто больше заплатит. Теперь убийца и шпионка должны работать вместе, чтобы предотвратить попадание информации не в те руки. На чашу весов положена судьба мира и Мстителей.




Контейнер: avi
Источник рипа: BDRip 1080
Видео: XviD, 23.976 fps, 1486 kbps, 720 x 400 pixels,
Аудио:
1. mp3, stereo, 48 KHz, 192 kbps; русский 2VO
2. mp3, stereo, 48 KHz, 192 kbps английский
Субтитры: русские ass, srt. (Dakota Family Translators)

Озвучивание: (Любительский двухголосый) Persona99 & Molodoy
Работа со звуком: Molodoy


Format : AVI
Format/Info : Audio Video Interleave
File size : 1.09 GiB
Duration : 1h 22mn
Overall bit rate : 1 884 Kbps
Writing application : VirtualDubMod 1.5.10.2 (build 2540/release)
Writing library : VirtualDubMod build 2540/release

Video
ID : 0
Format : MPEG-4 Visual
Format profile : Advanced Simple@L5
Format settings, BVOP : 2
Format settings, QPel : No
Format settings, GMC : No warppoints
Format settings, Matrix : Default (H.263)
Codec ID : XVID
Codec ID/Hint : XviD
Duration : 1h 22mn
Bit rate : 1 486 Kbps
Width : 720 pixels
Height : 400 pixels
Display aspect ratio : 16:9
Frame rate : 23.976 fps
Color space : YUV
Chroma subsampling : 4:2:0
Bit depth : 8 bits
Scan type : Progressive
Compression mode : Lossy
Bits/(Pixel*Frame) : 0.215
Stream size : 879 MiB (79%)
Writing library : XviD 1.2.1 (UTC 2008-12-04)

Audio #1
ID : 1
Format : MPEG Audio
Format version : Version 1
Format profile : Layer 3
Mode : Joint stereo
Mode extension : MS Stereo
Codec ID : 55
Codec ID/Hint : MP3
Duration : 1h 22mn
Bit rate mode : Constant
Bit rate : 192 Kbps
Channel(s) : 2 channels
Sampling rate : 48.0 KHz
Compression mode : Lossy
Stream size : 114 MiB (10%)
Alignment : Aligned on interleaves
Interleave, duration : 42 ms (1.00 video frame)
Interleave, preload duration : 504 ms
Writing library : LAME3.99r
Encoding settings : -m j -V 4 -q 2 -lowpass 18.6 -b 192

Audio #2
ID : 2
Format : MPEG Audio
Format version : Version 1
Format profile : Layer 3
Mode : Joint stereo
Mode extension : MS Stereo
Codec ID : 55
Codec ID/Hint : MP3
Duration : 1h 22mn
Bit rate mode : Constant
Bit rate : 192 Kbps
Channel(s) : 2 channels
Sampling rate : 48.0 KHz
Compression mode : Lossy
Stream size : 114 MiB (10%)
Alignment : Aligned on interleaves
Interleave, duration : 42 ms (1.00 video frame)
Interleave, preload duration : 504 ms
Writing library : LAME3.99r
Encoding settings : -m j -V 4 -q 2 -lowpass 18.6 -b 192


Семпл:



   Похожие торренты   Торрент   Размер 
В этой теме нет новых непрочитанных сообщений. Секретные Материалы Мстителей: Черная Вдова и Каратель / Avengers Confidential: Black Widow & Punisher (2014) HDRip | P

342 | 21

1.37 ГБ

В этой теме нет новых непрочитанных сообщений. Секретные материалы Мстителей: Черная Вдова и Каратель / Avengers Confidential: Black Widow & Punisher (2014) HDRip | iTunes

196 | 9

1.37 ГБ

В этой теме нет новых непрочитанных сообщений. Секретные Материалы Мстителей: Черная Вдова и Каратель / Avengers Confidential: Black Widow & Punisher (2014) BDRip 1080 | L2

62 | 8

2.71 ГБ

В этой теме нет новых непрочитанных сообщений. Секретные материалы Мстителей: Черная Вдова и Каратель / Avengers Confidential: Black Widow & Punisher (2014) BDRip 720p | L2

237 | 17

2.09 ГБ

В этой теме нет новых непрочитанных сообщений. Чёрная вдова / Black widow (2008) DVDRip

5 | 3

1.46 ГБ

В этой теме нет новых непрочитанных сообщений. Чёрная вдова / Black widow (2008) DVDRip

1 | 2

726.61 МБ

В этой теме нет новых непрочитанных сообщений. Черная вдова / Black Widow (1987) BDRemux 1080p | P, A

9 | 24

24.41 ГБ




Вы не можете начинать темы
Вы не можете отвечать на сообщения
Вы не можете редактировать свои сообщения
Вы не можете удалять свои сообщения
Вы не можете добавлять вложения

Перейти:  
Для Мосгорсуда, Роскомнадзора и рекламодателей: mosgorsud-torrent[собачка]yandex.ru
 Вход
ppkBB3cker v.2 © 2008-2014 @ PPK
[ Time : 0.576s | 15 Queries | GZIP : On ]

Торрент трекер RUTOR.IN, Не можете зайти на rutor.org? Какой новый адрес рутор? Какое зеркало рутор? Не работает rutor.org и зеркала? Тогда наш торрент специально для вас. Rutor.in неофициальное зеркало rutor. В случае если у Вас заблокирован rutor или вдруг Вы не можете на него зайти, то Вы без труда сможете скачать бесплатно и без рекламы последние новинки кино, игр, сериалов и прочего у нас, на Rutor.in. Не нужно использовать прокси, чтобы зайти на рутор, достаточно воспользоваться нашим ресурсом. Все новые фильмы, игры, сериалы, книги и музыка за 2013 и 2014 годы через торрент бесплатно. Скачивайте фильмы в хорошем качестве, игры для пк, xbox, playstation без регистрации. У нас вы найдете новые Зарубежные сериалы и Русские сериалы 2013, 2014, 2015 годов. Оставайтесь с нами, качайте любимые фильмы, игры, сериалы, книги и музыку.