img image001 image001 image001 image001 image001 image001 image001 image001 image001 image001 image001 image001 image001 image001 image001

Planets Sun Sun Sun
Статистика раздачи
Автор: Nickolas3434 | Размер: 1.55 ГБ | Добавлен: 25 май 2014
Раздают: 744    Качают: 42
Скачать торрент
Скачать торрент
Описание торрента

СообщениеДобавлено: 25 май 2014 

Информация о фильме

Название : Патэма наоборот
Оригинальное название : Sakasama no Patema / Patema Inverted / サカサマのパテマ
Год выхода : 2013
Жанр : Постапокалипсис, антиутопия, фантастика, приключения
Режиссер : Ясухиро Ёсиура
Роли озвучивали : Юкиё Фудзий, Синъя Фукумацу, Масаюки Като, Нобухико Окамото, Синтару Оохата




«Нас спасает притяжение»


Описание : В результате некой произошедшей в прошлом катастрофы человечество разделилось на два народа. Для первого народа гравитация действует наоборот и его представители, а также используемые ими вещи падают в небеса. Однако, эти люди живут под землей, поэтому большой угрозы для них эта особенность не представляет. Для второго народа гравитация действует обычным образом и он живет на поверхности земли. Жизни этих двух народов практически не пересекаются и о существовании друг друга большая часть их представителей не знает. Однако, у живущих на поверхности людей есть история о том что в прошлом грешники улетели на небеса. Поэтому в обществе считается недопустимым смотреть на небо и следует направлять свой взгляд на землю.
Страна : Япония
Производство : Purple Cow Studio
Продолжительность : 01:38:49

Перевод:
Перевод на русский: SuperJoe

Русские субтитры: SuperJoe

Озвучка: Любительская (Многоголосая, закадровая)

Перевод на русский: Шейди

Озвучивали: OVERLORDS & ArmorDRX & Mutsuko Air & Horie & Exevan [AniStar]
Автор рипа и релиза :
Файл
Формат видео : AVI
Качество : BDRip (исходник: Blu-ray disc - [BDMV][140425] サカサマのパテマ ~ Sakasama no Patema [LimitedEdition])

Видео : XviD, 720x400 (16:9), 23.976 fps, ~1730 Kbps
Аудио 1 : Русский, AC3, 128 Кбит/с, 48.0 Hz, 2 ch (в составе контейнера)
Аудио 2 : Японский, AC3, 384 Кбит/с, 48.0 Hz, 6 ch (в составе контейнера)
Субтитры (srt): Русские (внешним файлом)









General
Complete name : E:.Torrent_2.Sakasama no Patema (2013, XviD BDRip, JAP+SUB) [Stranik 2.0].Sakasama no Patema (2013, XviD BDRip, RUS JAP+SUB) [Stranik 2.0].avi
Format : AVI
Format/Info : Audio Video Interleave
Format profile : OpenDML
Format settings : rec
File size : 1.55 GiB
Duration : 1h 38mn
Overall bit rate : 2 248 Kbps
Writing application : AVI-Mux GUI 1.17.8.3, Feb 16 201019:42:50

Video #0
ID : 0
Format : MPEG-4 Visual
Format profile : Advanced Simple@L5
Format settings, BVOP : 1
Format settings, QPel : No
Format settings, GMC : No warppoints
Format settings, Matrix : Default (H.263)
Codec ID : XVID
Codec ID/Hint : XviD
Duration : 1h 38mn
Bit rate : 1 729 Kbps
Width : 720 pixels
Height : 400 pixels
Display aspect ratio : 16:9
Frame rate : 23.976 fps
Color space : YUV
Chroma subsampling : 4:2:0
Bit depth : 8 bits
Scan type : Progressive
Compression mode : Lossy
Bits/(Pixel*Frame) : 0.250
Stream size : 1.19 GiB (77%)
Writing library : XviD 1.2.1 (UTC 2008-12-04)

Audio #1
ID : 1
Format : AC-3
Format/Info : Audio Coding 3
Mode extension : CM (complete main)
Format settings, Endianness : Big
Codec ID : 2000
Duration : 1h 38mn
Bit rate mode : Constant
Bit rate : 128 Kbps
Channel(s) : 2 channels
Channel positions : Front: L R
Sampling rate : 48.0 KHz
Bit depth : 16 bits
Compression mode : Lossy
Stream size : 90.5 MiB (6%)
Alignment : Aligned on interleaves
Interleave, duration : 64 ms (1.53 video frames)
Interleave, preload duration : 256 ms

Audio #2
ID : 2
Format : AC-3
Format/Info : Audio Coding 3
Mode extension : CM (complete main)
Format settings, Endianness : Big
Codec ID : 2000
Duration : 1h 38mn
Bit rate mode : Constant
Bit rate : 384 Kbps
Channel(s) : 6 channels
Channel positions : Front: L C R, Side: L R, LFE
Sampling rate : 48.0 KHz
Bit depth : 16 bits
Compression mode : Lossy
Stream size : 271 MiB (17%)
Alignment : Aligned on interleaves
Interleave, duration : 64 ms (1.53 video frames)
Interleave, preload duration : 192 ms







   Похожие торренты   Торрент   Размер 
В этой теме нет новых непрочитанных сообщений. Патэма наоборот / Sakasama no Patema / Patema Inverted (2013) BDRip-720p | L

182 | 12

2.17 ГБ

В этой теме нет новых непрочитанных сообщений. Патэма наоборот / Patema Inverted / Sakasama no Patema (2013) BDRip 1080p | SUB

60 | 5

6.62 ГБ

В этой теме нет новых непрочитанных сообщений. Патэма наоборот / Sakasama no Patema / Patema Inverted (2013) BDRip-1080p | D

36 | 22

9.64 ГБ

В этой теме нет новых непрочитанных сообщений. Патэма наоборот / Sakasama no Patema / Patema Inverted (2013) BDRip-1080p | L

121 | 6

7.3 ГБ

В этой теме нет новых непрочитанных сообщений. OST - Патэма наоборот / Patema Inverted / Sakasama no Patema (2014) MP3

30 | 9

159.68 МБ

В этой теме нет новых непрочитанных сообщений. Перевёрнутая Патэма / Patema Inverted / Sakasama no Patema (2014) BDRip 720p, BDRip 1080p | AniRigin

142 | 81

7.2 ГБ

В этой теме нет новых непрочитанных сообщений. Патэма наоборот / Sakasama no Patema (2013) BDRip-AVC от HQCLUB

10 | 2

2.21 ГБ




Вы не можете начинать темы
Вы не можете отвечать на сообщения
Вы не можете редактировать свои сообщения
Вы не можете удалять свои сообщения
Вы не можете добавлять вложения

Перейти:  
Для Мосгорсуда, Роскомнадзора и рекламодателей: mosgorsud-torrent[собачка]yandex.ru
 Вход
ppkBB3cker v.2 © 2008-2014 @ PPK
[ Time : 0.073s | 16 Queries | GZIP : Off ]

Торрент трекер RUTOR.IN, Не можете зайти на rutor.org? Какой новый адрес рутор? Какое зеркало рутор? Не работает rutor.org и зеркала? Тогда наш торрент специально для вас. Rutor.in неофициальное зеркало rutor. В случае если у Вас заблокирован rutor или вдруг Вы не можете на него зайти, то Вы без труда сможете скачать бесплатно и без рекламы последние новинки кино, игр, сериалов и прочего у нас, на Rutor.in. Не нужно использовать прокси, чтобы зайти на рутор, достаточно воспользоваться нашим ресурсом. Все новые фильмы, игры, сериалы, книги и музыка за 2013 и 2014 годы через торрент бесплатно. Скачивайте фильмы в хорошем качестве, игры для пк, xbox, playstation без регистрации. У нас вы найдете новые Зарубежные сериалы и Русские сериалы 2013, 2014, 2015 годов. Оставайтесь с нами, качайте любимые фильмы, игры, сериалы, книги и музыку.
cron