img image001 image001 image001 image001 image001 image001 image001 image001 image001 image001 image001 image001 image001 image001 image001

Planets Sun Sun Sun
Статистика раздачи
Автор: Nickolas3434 | Размер: 4.85 ГБ | Добавлен: 25 май 2014
Раздают: 26    Качают: 4
Скачать торрент
Скачать торрент
Описание торрента

СообщениеДобавлено: 25 май 2014 

Информация о фильме

Название : Канон
Оригинальное название : Kanon Remake / カノン
Год выхода : 2006-2007
Жанр : Драма, комедия, романтика, мистика
Режиссер : Исихара Тацуя
Роли озвучивали : Томокадзу Сугита, Марико Кода, Юко Минагути, Юй Хориэ, Юкари Тамура, Акэми Сато, Мива Ясуда, Томокадзу Секи, Томоко Каваками, Аяко Кавасуми


Описание : Канон восточной мудрости гласит – ничто не проходит бесследно, всякое деяние и даже мысль могут изменить бытие Вселенной. Почему же 17-летний Юйти Айзава, приехав жить в северный японский город, ничего не помнит о тех временах, когда часто гостил здесь в детстве? Память возвращается по крупицам, когда он постепенно устраивается в доме тети Акико и кузины Наюки, привыкает к настоящей зиме, идет в новую школу и встречает новых знакомых. Вот только новых ли? Откуда вечное deja vu, то и дело пробивающее броню самоиронии главного героя? Откуда он знает этих веселых и грустных девочек, что живут в заснеженном городе, но боятся не мороза на улице, а холода в людских душах?

Главному герою предстоит закончить начатое и распутать множество загадок, каждая из которых – ключ к чьей-то жизни. Все упирается в выбор, который надо делать честно, без эгоизма и жалости к себе. Эта грустная зимняя сказка под классическую музыку – второй из шедевров совместного творчества компаний Key и Kyoto Animation, соединивших напряженный сюжет, запоминающиеся характеры и великолепие современной графики.
Страна : Япония
Производство : Kyoto Animation
Продолжительность : ~25 мин (24 серии)
Перевод: Любительский (одноголосый, закадровый) озвучивал: Ancord
Автор рипа и релиза : slonce
Файл
Формат видео : AVI
Качество : TVRip

Видео : XviD, 704x396 (16:9), 23.976 fps, ~823 Kbps
Аудио 1 : Русский, MP3, 192 Кбит/с, 48.0 Hz, 2 ch (в составе контейнера)
Аудио 2 : Японский, MP3, 192 Кбит/с, 48.0 Hz, 2 ch (в составе контейнера)
Субтитры : нет




01. Silver Overture ~overture~ / Серебряная Увертюра
02. Introit in the Snow ~introit~ / Заснеженное Введение
03. Partita of Memories ~partita~ / Партита Без Воспоминаний
04. Caprice in the Holidays ~caprice~ / Каприччио На Выходных
05. Serenade of the Apparition ~serenade~ / Серенада Демонов
06. Divertimento of Riddles ~divertimento~ / Таинственный Дивертисмент
07. Fugue of a Runaway Kitten ~fuga~ / Побег и Кошачья Фуга
08. Fantasia of Reminiscence ~fantasie~ / Фантазия Воспоминаний
09. Lullaby of a Fox Cub ~berceuse~ / Колыбельная для Лисёнка
10. Requiem on a Hill ~requiem~ / Реквием на Вершине Холма
11. Interlude of Light And a Shadow ~intermezzo~ / Интермедия Света и Тени
12. A Grotesque Waltz ~waltz~ / Фантастический Вальс
13. A Trio of Being Dangerous ~trio~ / Опасное Трио
14. Cracked Concerto ~concerto~ / Разбитый Концерт
15. A Sonatina of Hide-And-Seek ~sonatina~ / Сонатина Пряток
16. Oratorio in the Midnight ~oratorio~ / Полуночная Оратория
17. Silent Song of An Elder Sister and A Younger Sister ~Lieder ohne worte~ / Песни без Слов о Старшей и Младшей Сестре
18. The Disappearing Gentle Movement ~adagio~ / Исчезающее Адажио
19. The Etude of Contact ~etude~ / Этюд Контакта
20. Nocturne of Separation ~nocturn~ / Ноктюрн Расставания
21. Rondo of What You Aren't ~ronde~ / Рондо без Тебя
22. Symphony of Recollection ~symphony~ / Симфония Воспоминаний
23. Finale of Madder Red ~finale~ / Багровый Финал
24. Canon of the End of a Dream ~kanon~ / Канон в Конце Сна







General
Complete name : E:/Torrent_2/[Anidub]_Kanon_TV_[ru_ja]_[704x396_XviD]_[Ancord]/[Anidub]_Kanon_TV_01_[ru_ja]_[704x396_XviD]_[Ancord].avi
Format : AVI
Format/Info : Audio Video Interleave
File size : 212 MiB
Duration : 24mn 13s
Overall bit rate : 1 221 Kbps
Writing application : VirtualDubMod 1.5.10.2 (build 2540/release)
Writing library : VirtualDubMod build 2540/release

Video #0
ID : 0
Format : MPEG-4 Visual
Format profile : Simple@L3
Format settings, BVOP : No
Format settings, QPel : No
Format settings, GMC : No warppoints
Format settings, Matrix : Default (H.263)
Codec ID : XVID
Codec ID/Hint : XviD
Duration : 24mn 13s
Bit rate : 823 Kbps
Width : 704 pixels
Height : 396 pixels
Display aspect ratio : 16:9
Original display aspect ratio : 16:9
Frame rate : 23.976 fps
Color space : YUV
Chroma subsampling : 4:2:0
Bit depth : 8 bits
Scan type : Progressive
Compression mode : Lossy
Bits/(Pixel*Frame) : 0.123
Stream size : 143 MiB (67%)
Writing library : XviD 1.1.2 (UTC 2006-11-01)

Audio #1
ID : 1
Format : MPEG Audio
Format version : Version 1
Format profile : Layer 3
Mode : Joint stereo
Mode extension : MS Stereo
Codec ID : 55
Codec ID/Hint : MP3
Duration : 24mn 11s
Bit rate mode : Constant
Bit rate : 192 Kbps
Channel(s) : 2 channels
Sampling rate : 48.0 KHz
Compression mode : Lossy
Stream size : 33.2 MiB (16%)
Alignment : Aligned on interleaves
Interleave, duration : 42 ms (1.00 video frame)
Interleave, preload duration : 504 ms
Writing library : LAME3.97

Audio #2
ID : 2
Format : MPEG Audio
Format version : Version 1
Format profile : Layer 3
Mode : Joint stereo
Mode extension : MS Stereo
Codec ID : 55
Codec ID/Hint : MP3
Duration : 24mn 12s
Bit rate mode : Constant
Bit rate : 192 Kbps
Channel(s) : 2 channels
Sampling rate : 48.0 KHz
Compression mode : Lossy
Stream size : 33.3 MiB (16%)
Alignment : Aligned on interleaves
Interleave, duration : 42 ms (1.00 video frame)
Interleave, preload duration : 504 ms
Writing library : LAME3.97







   Похожие торренты   Торрент   Размер 
В этой теме нет новых непрочитанных сообщений. Малахов+ (2006-2007) TVRip

0 | 7

46.98 ГБ

В этой теме нет новых непрочитанных сообщений. Авантюристы / Los simuladores [S01-02] (2006–2007) TVRip | Р

2 | 1

5.8 ГБ

В этой теме нет новых непрочитанных сообщений. Два лица страсти [001-120 из 120] / Las dos caras de Ana (2006-2007) TVRip

0 | 2

42.66 ГБ

В этой теме нет новых непрочитанных сообщений. Дорога к храму (45 выпусков) (2006-2007) TVRip

2 | 1

1.21 ГБ

В этой теме нет новых непрочитанных сообщений. Женская Лига [ I и II сезон, 22 выпуска ] (2006-2007) TVRip

45 | 4

4.21 ГБ

В этой теме нет новых непрочитанных сообщений. Когда плачут цикады / Higurashi no Naku Koro ni Kai [S01-02] + OVA (2006-2007) TVRip

108 | 30

9.61 ГБ

В этой теме нет новых непрочитанных сообщений. Discovery: Моя ужасная история / My shocking story [6 выпусков] (2006-2007) TVRip от Files-x

10 | 2

3.63 ГБ




Вы не можете начинать темы
Вы не можете отвечать на сообщения
Вы не можете редактировать свои сообщения
Вы не можете удалять свои сообщения
Вы не можете добавлять вложения

Перейти:  
Для Мосгорсуда, Роскомнадзора и рекламодателей: mosgorsud-torrent[собачка]yandex.ru
 Вход
ppkBB3cker v.2 © 2008-2014 @ PPK
[ Time : 0.035s | 15 Queries | GZIP : Off ]

Торрент трекер RUTOR.IN, Не можете зайти на rutor.org? Какой новый адрес рутор? Какое зеркало рутор? Не работает rutor.org и зеркала? Тогда наш торрент специально для вас. Rutor.in неофициальное зеркало rutor. В случае если у Вас заблокирован rutor или вдруг Вы не можете на него зайти, то Вы без труда сможете скачать бесплатно и без рекламы последние новинки кино, игр, сериалов и прочего у нас, на Rutor.in. Не нужно использовать прокси, чтобы зайти на рутор, достаточно воспользоваться нашим ресурсом. Все новые фильмы, игры, сериалы, книги и музыка за 2013 и 2014 годы через торрент бесплатно. Скачивайте фильмы в хорошем качестве, игры для пк, xbox, playstation без регистрации. У нас вы найдете новые Зарубежные сериалы и Русские сериалы 2013, 2014, 2015 годов. Оставайтесь с нами, качайте любимые фильмы, игры, сериалы, книги и музыку.