img image001 image001 image001 image001 image001 image001 image001 image001 image001 image001 image001 image001 image001 image001 image001

Planets Sun Sun Sun
Статистика раздачи
Автор: Nickolas3434 | Размер: 7.3 ГБ | Добавлен: 25 май 2014
Раздают: 121    Качают: 6
Скачать торрент
Скачать торрент
Описание торрента

СообщениеДобавлено: 25 май 2014 

Информация о фильме

Название : Патэма наоборот
Оригинальное название : Sakasama no Patema / Patema Inverted / サカサマのパテマ
Год выхода : 2013
Жанр : Постапокалипсис, антиутопия, фантастика, приключения
Режиссер : Ясухиро Ёсиура
Роли озвучивали : Юкиё Фудзий, Синъя Фукумацу, Масаюки Като, Нобухико Окамото, Синтару Оохата




«Нас спасает притяжение»


Описание : В результате некой произошедшей в прошлом катастрофы человечество разделилось на два народа. Для первого народа гравитация действует наоборот и его представители, а также используемые ими вещи падают в небеса. Однако, эти люди живут под землей, поэтому большой угрозы для них эта особенность не представляет. Для второго народа гравитация действует обычным образом и он живет на поверхности земли. Жизни этих двух народов практически не пересекаются и о существовании друг друга большая часть их представителей не знает. Однако, у живущих на поверхности людей есть история о том что в прошлом грешники улетели на небеса. Поэтому в обществе считается недопустимым смотреть на небо и следует направлять свой взгляд на землю.
Страна : Япония
Производство : Purple Cow Studio
Продолжительность : 01:38:49

Перевод:
Перевод на русский: SuperJoe

Русские субтитры: SuperJoe

Озвучка: Любительская (Многоголосая, закадровая)

Озвучивали: OVERLORDS & ArmorDRX & Mutsuko Air & Horie & Exevan [AniStar]
Автор рипа и релиза :
Файл
Формат видео : MKV
Качество : BDRip (исходник: Blu-ray disc - [BDMV][140425] サカサマのパテマ ~ Sakasama no Patema [LimitedEdition])

Видео : AVC, 1920x1080 (16:9), 8 bit, 23.976 fps, ~9800 Kbps
Аудио 1 : Русский, AC3, 128 Кбит/с, 48.0 Hz, 2 ch (в составе контейнера)
Аудио 2 : Японский, AC3, 640 Кбит/с, 48.0 Hz, 6 ch (в составе контейнера)
Субтитры 1 (srt): Русские [Sheydi] (в составе контейнера)
Субтитры 2 (srt): Русские [SuperJoe] (в составе контейнера)
Субтитры 3 (srt): Английские [JnMBS] (в составе контейнера)









General
Unique ID : 186655664859414173438123687988278097185 (0x8C6C92CBEE16DBB88D7AC01E99847521)
Complete name : E:/Torrent_2/Sakasama no Patema (2013, BDRip-1080p, RUS JAP+SUB) [Stranik 2.0].mkv
Format : Matroska
Format version : Version 2
File size : 7.30 GiB
Duration : 1h 38mn
Overall bit rate : 10.6 Mbps
Encoded date : UTC 2014-05-19 07:27:16
Writing application : mkvmerge v5.5.0 ('Healer') built on Apr 6 2012 21:43:24
Writing library : libebml v1.2.3 + libmatroska v1.3.0

Video #1
ID : 1
Format : AVC
Format/Info : Advanced Video Codec
Format profile : High@L5.0
Format settings, CABAC : Yes
Format settings, ReFrames : 6 frames
Codec ID : V_MPEG4/ISO/AVC
Duration : 1h 38mn
Bit rate : 9 800 Kbps
Width : 1 920 pixels
Height : 1 080 pixels
Display aspect ratio : 16:9
Frame rate mode : Constant
Frame rate : 23.976 fps
Color space : YUV
Chroma subsampling : 4:2:0
Bit depth : 8 bits
Scan type : Progressive
Bits/(Pixel*Frame) : 0.197
Stream size : 6.62 GiB (91%)
Writing library : x264 core 138 r2358 9e941d1
Encoding settings : cabac=1 / ref=6 / deblock=1:1:1 / analyse=0x3:0x113 / me=hex / subme=10 / psy=1 / psy_rd=0.40:0.00 / mixed_ref=1 / me_range=16 / chroma_me=1 / trellis=2 / 8x8dct=1 / cqm=0 / deadzone=21,11 / fast_pskip=1 / chroma_qp_offset=-2 / threads=3 / lookahead_threads=1 / sliced_threads=0 / nr=0 / decimate=1 / interlaced=0 / bluray_compat=0 / constrained_intra=0 / bframes=6 / b_pyramid=2 / b_adapt=1 / b_bias=0 / direct=1 / weightb=1 / open_gop=0 / weightp=2 / keyint=240 / keyint_min=23 / scenecut=40 / intra_refresh=0 / rc_lookahead=40 / rc=2pass / mbtree=1 / bitrate=9800 / ratetol=1.0 / qcomp=0.60 / qpmin=0 / qpmax=69 / qpstep=4 / cplxblur=20.0 / qblur=0.5 / ip_ratio=1.40 / aq=1:0.60
Language : Japanese
Default : Yes
Forced : No

Audio #2
ID : 2
Format : AC-3
Format/Info : Audio Coding 3
Mode extension : CM (complete main)
Format settings, Endianness : Big
Codec ID : A_AC3
Duration : 1h 38mn
Bit rate mode : Constant
Bit rate : 128 Kbps
Channel(s) : 2 channels
Channel positions : Front: L R
Sampling rate : 48.0 KHz
Bit depth : 16 bits
Compression mode : Lossy
Stream size : 90.5 MiB (1%)
Title : MVO [AniStar]
Language : Russian
Default : Yes
Forced : Yes

Audio #3
ID : 3
Format : AC-3
Format/Info : Audio Coding 3
Mode extension : CM (complete main)
Format settings, Endianness : Big
Codec ID : A_AC3
Duration : 1h 38mn
Bit rate mode : Constant
Bit rate : 640 Kbps
Channel(s) : 6 channels
Channel positions : Front: L C R, Side: L R, LFE
Sampling rate : 48.0 KHz
Bit depth : 16 bits
Compression mode : Lossy
Stream size : 453 MiB (6%)
Title : Original
Language : Japanese
Default : No
Forced : No

Text #4
ID : 4
Format : UTF-8
Codec ID : S_TEXT/UTF8
Codec ID/Info : UTF-8 Plain Text
Title : Sheydi
Language : Russian
Default : Yes
Forced : No

Text #5
ID : 5
Format : UTF-8
Codec ID : S_TEXT/UTF8
Codec ID/Info : UTF-8 Plain Text
Title : SuperJoe
Language : Russian
Default : No
Forced : No

Text #6
ID : 6
Format : UTF-8
Codec ID : S_TEXT/UTF8
Codec ID/Info : UTF-8 Plain Text
Title : JnMBS
Language : English
Default : No
Forced : No







   Похожие торренты   Торрент   Размер 
В этой теме нет новых непрочитанных сообщений. Патэма наоборот / Sakasama no Patema / Patema Inverted (2013) BDRip-1080p | D

31 | 41

9.64 ГБ

В этой теме нет новых непрочитанных сообщений. Патэма наоборот / Patema Inverted / Sakasama no Patema (2013) BDRip 1080p | SUB

60 | 5

6.62 ГБ

В этой теме нет новых непрочитанных сообщений. Патэма наоборот / Sakasama no Patema / Patema Inverted (2013) BDRip-720p | L

182 | 12

2.17 ГБ

В этой теме нет новых непрочитанных сообщений. Патэма наоборот / Sakasama no Patema / Patema Inverted (2013) BDRip | L

744 | 42

1.55 ГБ

В этой теме нет новых непрочитанных сообщений. OST - Патэма наоборот / Patema Inverted / Sakasama no Patema (2014) MP3

30 | 9

159.68 МБ

В этой теме нет новых непрочитанных сообщений. Перевёрнутая Патэма / Patema Inverted / Sakasama no Patema (2014) BDRip 720p, BDRip 1080p | AniRigin

142 | 81

7.2 ГБ

В этой теме нет новых непрочитанных сообщений. Патэма наоборот / Sakasama no Patema (2013) BDRip от HQCLUB

33 | 1

1.45 ГБ




Вы не можете начинать темы
Вы не можете отвечать на сообщения
Вы не можете редактировать свои сообщения
Вы не можете удалять свои сообщения
Вы не можете добавлять вложения

Перейти:  
Для Мосгорсуда, Роскомнадзора и рекламодателей: mosgorsud-torrent[собачка]yandex.ru
 Вход
ppkBB3cker v.2 © 2008-2014 @ PPK
[ Time : 1.013s | 15 Queries | GZIP : Off ]

Торрент трекер RUTOR.IN, Не можете зайти на rutor.org? Какой новый адрес рутор? Какое зеркало рутор? Не работает rutor.org и зеркала? Тогда наш торрент специально для вас. Rutor.in неофициальное зеркало rutor. В случае если у Вас заблокирован rutor или вдруг Вы не можете на него зайти, то Вы без труда сможете скачать бесплатно и без рекламы последние новинки кино, игр, сериалов и прочего у нас, на Rutor.in. Не нужно использовать прокси, чтобы зайти на рутор, достаточно воспользоваться нашим ресурсом. Все новые фильмы, игры, сериалы, книги и музыка за 2013 и 2014 годы через торрент бесплатно. Скачивайте фильмы в хорошем качестве, игры для пк, xbox, playstation без регистрации. У нас вы найдете новые Зарубежные сериалы и Русские сериалы 2013, 2014, 2015 годов. Оставайтесь с нами, качайте любимые фильмы, игры, сериалы, книги и музыку.