img image001 image001 image001 image001 image001 image001 image001 image001 image001 image001 image001 image001 image001 image001 image001

Planets Sun Sun Sun
Статистика раздачи
Автор: Nickolas3434 | Размер: 47.68 МБ | Добавлен: 27 май 2014
Раздают: 35    Качают: 2
Скачать торрент
Скачать торрент
Описание торрента

СообщениеДобавлено: 27 май 2014 

Информация о фильме
Название: Перепутье
Оригинальное название: Z-Kai: Cross Road
Жанр: повседневность, школа
Режиссёр: Синкай Макото

Описание:

Двухминутная музыкальная зарисовка Cross Road снята режиссёром Макото Синкаем по заказу компании Z-Kai, которая занимается подготовкой абитуриентов в японские вузы. Герои фильма — старшеклассница Михо, живущая на отдалённом острове, где не действуют очные подготовительные курсы, и её ровесник Сёта — он, хоть и житель мегаполиса, после школьных уроков подрабатывает допоздна и на традиционные курсы просто не успевает. Для обоих дистанционные занятия по программе Z-Kai стали единственным способом серьёзно подготовиться к вступительным экзаменам в университет.

Информационные ссылки: || MAL

Страна: Япония
Премьера: 25.02.2014
Тип/Продолжительность: ONA (1 эп.), 2 мин.

Студии: и

Субтитры:
русские, софтсаб, внешним файлом от Shift & Timecraft
Перевод: Evafan;
Редактура: AleX_MytH;
Оформление: matoi-kun

английские, софтсаб, в контейнере

Озвучка:
Любительская двухголосая (муж./жен.), внешним файлом от Mistake & Kira Ksyll (OpenDub)
Любительская двухголосая (муж./жен.), внешним файлом от Erinant & Kashi (Animedia)
Любительская двухголосая (муж./жен.), внешним файлом от FaSt & Milirina

Файл
Качество: WEBRip | Тип видео: Без хардсаба | Формат: MP4
Видео: 1920x1080, 24.000 f/s, H.264, 8 bits, 2 712 Kb/s
Аудио JAP: 44.1 KHz, AAC, 2 channels, 126 Kb/s
Аудио RUS: 48.0 KHz, AAC, 2 channels, 192 Kb/s
Аудио RUS 2: 48.0 KHz, AAC, 2 channels, 192 Kb/s
Аудио RUS 3: 44.1 KHz, AAC, 2 channels, 128 Kb/s


Код:
Общее
Полное имя : D:[Flash-Ost]AnimeПерепутье [Cross Road]CROSS ROAD ONA (YT 1920x1080 x264 AAC).mp4
Формат : MPEG-4
Профиль формата : Base Media
Идентификатор кодека : isom
Размер файла : 40,4 Мбайт
Продолжительность : 1 м. 59 с.
Общий поток : 2842 Кбит/сек
Программа кодирования : Lavf55.12.100
Видео
Идентификатор : 1
Формат : AVC
Формат/Информация : Advanced Video Codec
Профиль формата : High@L4.0
Параметр CABAC формата : Да
Параметр ReFrames формата : 2 кадры
Параметры GOP формата : M=3, N=12
Идентификатор кодека : avc1
Идентификатор кодека/Информация : Advanced Video Coding
Продолжительность : 1 м. 59 с.
Вид битрейта : Переменный
Битрейт : 2712 Кбит/сек
Ширина : 1920 пикс.
Высота : 1080 пикс.
Соотношение сторон : 16:9
Режим частоты кадров : Переменный
Частота кадров : 24,000 кадр/сек
Минимальная частота кадров : 24,000 кадр/сек
Максимальная частота кадров : 24,390 кадр/сек
Цветовое пространство : YUV
Подвыборка цветности : 4:2:0
Битовая глубина : 8 бит
Тип развёртки : Прогрессивная
Бит/(Пиксели*Кадры) : 0.054
Размер потока : 38,5 Мбайт (95%)
Аудио
Идентификатор : 2
Формат : AAC
Формат/Информация : Advanced Audio Codec
Профиль формата : LC
Идентификатор кодека : 40
Продолжительность : 1 м. 59 с.
Вид битрейта : Постоянный
Битрейт : 126 Кбит/сек
Канал(ы) : 2 канала(ов)
Расположение каналов : Front: L R
Частота : 44,1 КГц
Метод сжатия : С потерями
Размер потока : 1,78 Мбайт (4%)
Текст
Идентификатор : 3
Формат : Timed text
Режим смешивания : sbtl
Идентификатор кодека : tx3g
Продолжительность : 1 м. 55 с.
Вид битрейта : Переменный
Битрейт : 70 бит/сек
Размер потока : 1006 байт (0%)
Язык : English



   Похожие торренты   Торрент   Размер 
В этой теме нет новых непрочитанных сообщений. Перепутье Анж / Cross Ange [01-14 из 25] (2014) HDTVRip 720p

58 | 42

7.36 ГБ

В этой теме нет новых непрочитанных сообщений. Перепутье Анж / Cross Ange [01-08 из 25] (2014) HDTVRip 720p

17 | 2

4.25 ГБ

В этой теме нет новых непрочитанных сообщений. Перепутье Анж / Cross Ange [01-13 из 25] (2014) HDTVRip 720p

55 | 22

6.84 ГБ

В этой теме нет новых непрочитанных сообщений. Перепутье Анж / Cross Ange [01-19 из 25] (2014) HDTVRip 720p | L

19 | 9

10.2 ГБ

В этой теме нет новых непрочитанных сообщений. Перепутье Анж / Cross Ange [01-25 из 25] (2014) HDTVRip 720p | L

83 | 43

14.31 ГБ

В этой теме нет новых непрочитанных сообщений. Перепутье Анж / Cross Ange [01-17 из 25] (2014) HDTVRip 720p

4 | 2

9.14 ГБ

В этой теме нет новых непрочитанных сообщений. Перепутье Анж / Cross Ange [01-06 из 25] (2014) HDTVRip 720p

24 | 6

3.19 ГБ




Вы не можете начинать темы
Вы не можете отвечать на сообщения
Вы не можете редактировать свои сообщения
Вы не можете удалять свои сообщения
Вы не можете добавлять вложения

Перейти:  
Для Мосгорсуда, Роскомнадзора и рекламодателей: mosgorsud-torrent[собачка]yandex.ru
 Вход
ppkBB3cker v.2 © 2008-2014 @ PPK
[ Time : 0.020s | 15 Queries | GZIP : Off ]

Торрент трекер RUTOR.IN, Не можете зайти на rutor.org? Какой новый адрес рутор? Какое зеркало рутор? Не работает rutor.org и зеркала? Тогда наш торрент специально для вас. Rutor.in неофициальное зеркало rutor. В случае если у Вас заблокирован rutor или вдруг Вы не можете на него зайти, то Вы без труда сможете скачать бесплатно и без рекламы последние новинки кино, игр, сериалов и прочего у нас, на Rutor.in. Не нужно использовать прокси, чтобы зайти на рутор, достаточно воспользоваться нашим ресурсом. Все новые фильмы, игры, сериалы, книги и музыка за 2013 и 2014 годы через торрент бесплатно. Скачивайте фильмы в хорошем качестве, игры для пк, xbox, playstation без регистрации. У нас вы найдете новые Зарубежные сериалы и Русские сериалы 2013, 2014, 2015 годов. Оставайтесь с нами, качайте любимые фильмы, игры, сериалы, книги и музыку.