img image001 image001 image001 image001 image001 image001 image001 image001 image001 image001 image001 image001 image001 image001 image001

Planets Sun Sun Sun
Статистика раздачи
Автор: Nickolas3434 | Размер: 2.9 ГБ | Добавлен: 02 июн 2014
Раздают: 67    Качают: 22
Скачать торрент
Скачать торрент
Описание торрента

СообщениеДобавлено: 02 июн 2014 

Информация о фильме
Название: Война тануки в периоды Хэйсэй и Помпоко / Помпоко: Война тануки
Оригинальное название: Pom Poko / Heisei tanuki gassen pompoko
Год выхода: 1994
Жанр: Аниме, мультфильм, фэнтези, драма, комедия, полнометражный
Режиссер: Исао Такахата
Озвучивали: Синтё Коконтэй, Макото Нономура, Юрико Ишида, Норихэй Мики, Нидзико Киёкава, Сигеру Изумия, Ганносукэ Асия, Такэхиро Мурата, Бэйто Кацура, Санси Кацура, Косан Янагия, Акира Камия, Рэй Сакума, Томокадзу Секи, Минору Яда, Йори Йамашита

О фильме: Современная Япония, западные окраины Токио. Люди застраивают леса и холмы, которые раньше принадлежали тануки — енотовидным собакам. Тануки начинают героическую, но обреченную войну за выживание. Для этого они возрождают древнее искусство превращения. С его помощью они могут превращаться даже в людей…



Страна: Япония / Hakuhodo Incorporated, Nippon Television Network, Studio Ghibli, Tokuma Shoten
Продолжительность: 01:59:11
Перевод: Профессиональный многоголосый (Киномания) / Авторский одноголосый (Артем Толстобров)
Дата релиза: 31.05.2014

Файл
Кодек: MPEG-4 AVC
Качество: BDRip (AVC)
Видео: 1024x552, 2650 Кбит/с
Звук: Русский (AC3, 2 ch, 192 Кбит/с), японский (AC3, 2 ch, 448 Кбит/с)

Семпл








Unique ID : 249237452250797772523798955224009197473 (0xBB8163232922E33E93D00AF92F4EC7A1)
Complete name : D:Pompoko.Vojna.tanuki.1994.x264.BDRip.(AVC).KinoRay.(Sheikn).mkv
Format : Matroska
Format version : Version 2
File size : 2.90 GiB
Duration : 1h 59mn
Overall bit rate : 3 484 Kbps
Encoded date : UTC 2014-05-31 16:42:06
Writing application : mkvmerge v4.0.0 ('The Stars were mine') сборка от Jun 6 2010 16:18:42
Writing library : libebml v1.0.0 + libmatroska v1.0.0
Video #1
ID : 1
Format : AVC
Format/Info : Advanced Video Codec
Format profile : High@L4.1
Format settings, CABAC : Yes
Format settings, ReFrames : 4 frames
Codec ID : V_MPEG4/ISO/AVC
Duration : 1h 59mn
Bit rate : 2 650 Kbps
Width : 1 024 pixels
Height : 552 pixels
Display aspect ratio : 1.85:1
Frame rate mode : Constant
Frame rate : 23.976 fps
Color space : YUV
Chroma subsampling : 4:2:0
Bit depth : 8 bits
Scan type : Progressive
Bits/(Pixel*Frame) : 0.196
Stream size : 2.15 GiB (74%)
Writing library : x264 core 119 r2106 07efeb4
Encoding settings : cabac=1 / ref=3 / deblock=1:-3:-3 / analyse=0x3:0x113 / me=hex / subme=11 / psy=1 / psy_rd=1.00:0.00 / mixed_ref=1 / me_range=16 / chroma_me=1 / trellis=2 / 8x8dct=1 / cqm=0 / deadzone=21,11 / fast_pskip=1 / chroma_qp_offset=-2 / threads=3 / sliced_threads=0 / nr=0 / decimate=1 / interlaced=0 / bluray_compat=0 / constrained_intra=0 / bframes=4 / b_pyramid=2 / b_adapt=1 / b_bias=0 / direct=3 / weightb=1 / open_gop=0 / weightp=1 / keyint=245 / keyint_min=23 / scenecut=40 / intra_refresh=0 / rc_lookahead=30 / rc=2pass / mbtree=1 / bitrate=2650 / ratetol=1.0 / qcomp=0.60 / qpmin=0 / qpmax=69 / qpstep=4 / cplxblur=20.0 / qblur=0.5 / ip_ratio=1.40 / aq=1:1.00
Default : No
Forced : Yes
Audio #2
ID : 2
Format : AC-3
Format/Info : Audio Coding 3
Mode extension : CM (complete main)
Format settings, Endianness : Big
Codec ID : A_AC3
Duration : 1h 59mn
Bit rate mode : Constant
Bit rate : 192 Kbps
Channel(s) : 2 channels
Channel positions : Front: L R
Sampling rate : 48.0 KHz
Bit depth : 16 bits
Compression mode : Lossy
Stream size : 164 MiB (6%)
Title : Профессиональный многоголосый (Киномания)
Language : Russian
Default : No
Forced : Yes
Audio #3
ID : 3
Format : AC-3
Format/Info : Audio Coding 3
Mode extension : CM (complete main)
Format settings, Endianness : Big
Codec ID : A_AC3
Duration : 1h 59mn
Bit rate mode : Constant
Bit rate : 192 Kbps
Channel(s) : 2 channels
Channel positions : Front: L R
Sampling rate : 48.0 KHz
Bit depth : 16 bits
Compression mode : Lossy
Stream size : 164 MiB (6%)
Title : Авторский одноголосый (Артем Толстобров))
Language : Russian
Default : No
Forced : Yes
Audio #4
ID : 4
Format : AC-3
Format/Info : Audio Coding 3
Mode extension : CM (complete main)
Format settings, Endianness : Big
Codec ID : A_AC3
Duration : 1h 59mn
Bit rate mode : Constant
Bit rate : 448 Kbps
Channel(s) : 2 channels
Channel positions : Front: L R
Sampling rate : 48.0 KHz
Bit depth : 16 bits
Compression mode : Lossy
Stream size : 382 MiB (13%)
Title : Оригинал (Японский)
Language : Japanese
Default : No
Forced : Yes


* В 1995 году фильм выдвигался Японией на Оскар в категории «Лучший зарубежный фильм». Это был первый случай в истории Оскара, когда в этой категории выдвигался анимационный фильм.
* Фильм стал самым кассовым фильмом в Японии по итогам проката 1994 года.
* Идея снять фильм о тануки пришла Миядзаки после его «фильма о свинье» — «Порко Россо».
* Тануки — самые большие из распространенных в Японии диких животных. Сейчас они находятся на грани вымирания. Кроме Японии, тануки также водятся в Корее и Китае, а также на российском Дальнем Востоке (бассейн реки Уссури). В 1934 году тануки были расселены в европейской части СССР, и сейчас их ареал обитания доходит до Западной Европы.
* Хэйсэй — период правления императора Акихито. Он начался в 1989 году. Помпоко — период в истории тануки. Звук «пом-поко» тануки издают, когда стучат по своим наполненным животам.
* Во время «Парада чудовищ» можно заметить Кики из «Ведьминой служба доставки», Порко Россо, Тоторо из «Мой сосед Тоторо», Галактический Экспресс 999 и маленькую Таэко из «Ещё вчера» на заднем плане.

Награды:
* Выиграл в номинации Лучший полнометражный мультфильм на Международном фестивале анимационных фильмов в Анси.
* В 1994 году фильм получил премию «Майнити» — за лучший анимационный фильм.


Релиз от:



   Похожие торренты   Торрент   Размер 
В этой теме нет новых непрочитанных сообщений. Война тануки в периоды Хэйсэй и Помпоко / Помпоко: Война тануки / Pom Poko / Heisei tanuki gassen pompo (1994) BDRip-AVC от KinoRay & Sheikn | P, A

97 | 5

2.31 ГБ

В этой теме нет новых непрочитанных сообщений. Война тануки в периоды Хэйсэй и Помпоко / Pom Poko / Heisei Tanuki Gassen Ponpoko (1994) BDRip 1080p от NNNB | P

109 | 13

5.76 ГБ

В этой теме нет новых непрочитанных сообщений. Бесшумная война / Тихая война / Безмолвная война / The Silent War (2012) BDRip 720p | L2

3 | 5

5.15 ГБ

В этой теме нет новых непрочитанных сообщений. Тихая война / Безмолвная война / The Silent War (2012) BDRip | L2

12 | 3

2.06 ГБ

В этой теме нет новых непрочитанных сообщений. Галактическая война / Война Миротворцев / На Краю Вселенной / Farscape: The Peacekeeper Wars (2004) BDRip от Rulya74

152 | 34

3.65 ГБ

В этой теме нет новых непрочитанных сообщений. Покахонтас / Pocahontas (1994) DVDRip от KinoRay & Sheikn

53 | 22

582.29 МБ

В этой теме нет новых непрочитанных сообщений. Ноев ковчег / Noah's Ark (1994) DVDRip от KinoRay & Sheikn

34 | 9

698.49 МБ




Вы не можете начинать темы
Вы не можете отвечать на сообщения
Вы не можете редактировать свои сообщения
Вы не можете удалять свои сообщения
Вы не можете добавлять вложения

Перейти:  
Для Мосгорсуда, Роскомнадзора и рекламодателей: mosgorsud-torrent[собачка]yandex.ru
 Вход
ppkBB3cker v.2 © 2008-2014 @ PPK
[ Time : 0.073s | 15 Queries | GZIP : Off ]

Торрент трекер RUTOR.IN, Не можете зайти на rutor.org? Какой новый адрес рутор? Какое зеркало рутор? Не работает rutor.org и зеркала? Тогда наш торрент специально для вас. Rutor.in неофициальное зеркало rutor. В случае если у Вас заблокирован rutor или вдруг Вы не можете на него зайти, то Вы без труда сможете скачать бесплатно и без рекламы последние новинки кино, игр, сериалов и прочего у нас, на Rutor.in. Не нужно использовать прокси, чтобы зайти на рутор, достаточно воспользоваться нашим ресурсом. Все новые фильмы, игры, сериалы, книги и музыка за 2013 и 2014 годы через торрент бесплатно. Скачивайте фильмы в хорошем качестве, игры для пк, xbox, playstation без регистрации. У нас вы найдете новые Зарубежные сериалы и Русские сериалы 2013, 2014, 2015 годов. Оставайтесь с нами, качайте любимые фильмы, игры, сериалы, книги и музыку.