img image001 image001 image001 image001 image001 image001 image001 image001 image001 image001 image001 image001 image001 image001 image001

Planets Sun Sun Sun
Статистика раздачи
Автор: Nickolas3434 | Размер: 7.65 ГБ | Добавлен: 14 июн 2014
Раздают: 8    Качают: 43
Скачать торрент
Скачать торрент
Описание торрента

СообщениеДобавлено: 14 июн 2014 

Кибер-команда Акихабары / Akihabara Dennou-gumi / Cyberteam in Akihabara

Страна: Япония
Год выпуска: 1998 г.
Жанр: приключения, комедия, махо-сёдзё
Тип: TV
Продолжительность: ТВ (26 эп.), 25 мин.
Режиссер: Фудзимото Ёситака
Студия: Ashi Productions

Описание:
Патапи" (patapi) - симпатичное механическое существо, похожее на кибер-питомца. Оно может есть, спать, играть и даже помогать своим хозяевам. Хибари Ханакоганей (Hibari Hanakoganei) получает патапи в подарок от принца и дает ему имя Данске (Densuke).
Когда таинственные силы пытаются похитить Данске, Хибари обнаруживает, что он не просто обычный патапи: он может превращаться в сильного кибер-бойца, внешне похожего на свою хозяйку. У друзей Хибари тоже появляются подобные патапи, и вместе они формируют Кибер Команду в Акихабаре (Akihabara).

Качество: DVDRip
Тип релиза: Без хардсаба
Формат видео: MKV
Совместимость с бытовыми плеерами: Нет
Видео: x264, 640x480, ~1304 Kbps, 8 bits, 23.976 fps
Аудио: 1 AC3, 48.0 KHz, 224 Kbps, 2 channels RUS Озвучка: (Любительский одноголосый) Persona99
Аудио: 2 AC3, 48.0 KHz, 224 Kbps, 2 channels JPN
Субтитры: ASS встроенные в составе контейнера, Язык субтитров русский ; Перевод: VZbitten
Код:
General
Unique ID                                : 189756035455172121033320017088983257197 (0x8EC1AEDE67B3500E911308CEE06AD06D)
Complete name                            : Cyberteam in Akihabara TV (RUS)�5-Cyberteam_In_Akihabara[Persona99].rus.jpn.mkv
Format                                   : Matroska
Format version                           : Version 2
File size                                : 301 MiB
Duration                                 : 23mn 32s
Overall bit rate                         : 1 789 Kbps
Encoded date                             : UTC 2014-04-27 12:41:30
Writing application                      : mkvmerge v4.0.0 ('The Stars were mine') built on Jun  6 2010 16:18:42
Writing library                          : libebml v1.0.0 + libmatroska v1.0.0

Video
ID                                       : 1
Format                                   : AVC
Format/Info                              : Advanced Video Codec
Format profile                           : High@L3.0
Format settings, CABAC                   : Yes
Format settings, ReFrames                : 5 frames
Codec ID                                 : V_MPEG4/ISO/AVC
Duration                                 : 23mn 32s
Bit rate                                 : 1 305 Kbps
Nominal bit rate                         : 1 610 Kbps
Width                                    : 640 pixels
Height                                   : 480 pixels
Display aspect ratio                     : 4:3
Frame rate mode                          : Constant
Frame rate                               : 23.976 fps
Original frame rate                      : 29.970 fps
Color space                              : YUV
Chroma subsampling                       : 4:2:0
Bit depth                                : 8 bits
Scan type                                : Progressive
Bits/(Pixel*Frame)                       : 0.177
Stream size                              : 220 MiB (73%)
Writing library                          : x264 core 68 r1183M f21daff
Encoding settings                        : cabac=1 / ref=5 / deblock=1:1:1 / analyse=0x3:0x133 / me=tesa / subme=8 / psy_rd=1.0:0.0 / mixed_ref=1 / me_range=16 / chroma_me=1 / trellis=1 / 8x8dct=1 / cqm=2 / deadzone=21,11 / chroma_qp_offset=-2 / threads=3 / nr=0 / decimate=0 / mbaff=0 / bframes=1 / b_pyramid=0 / b_adapt=1 / b_bias=0 / direct=3 / wpredb=1 / keyint=250 / keyint_min=25 / scenecut=40 / rc=2pass / bitrate=1610 / ratetol=1.0 / qcomp=0.60 / qpmin=10 / qpmax=51 / qpstep=4 / cplxblur=20.0 / qblur=0.5 / ip_ratio=1.40 / pb_ratio=1.30 / aq=1:1.00
Default                                  : No
Forced                                   : No

Audio #1
ID                                       : 2
Format                                   : AC-3
Format/Info                              : Audio Coding 3
Mode extension                           : CM (complete main)
Format settings, Endianness              : Big
Codec ID                                 : A_AC3
Duration                                 : 23mn 32s
Bit rate mode                            : Constant
Bit rate                                 : 224 Kbps
Channel(s)                               : 2 channels
Channel positions                        : Front: L R
Sampling rate                            : 48.0 KHz
Bit depth                                : 16 bits
Compression mode                         : Lossy
Stream size                              : 37.7 MiB (13%)
Title                                    : Persona99
Language                                 : Russian
Default                                  : Yes
Forced                                   : No

Audio #2
ID                                       : 3
Format                                   : AC-3
Format/Info                              : Audio Coding 3
Mode extension                           : CM (complete main)
Format settings, Endianness              : Big
Codec ID                                 : A_AC3
Duration                                 : 23mn 32s
Bit rate mode                            : Constant
Bit rate                                 : 224 Kbps
Channel(s)                               : 2 channels
Channel positions                        : Front: L R
Sampling rate                            : 48.0 KHz
Bit depth                                : 16 bits
Compression mode                         : Lossy
Delay relative to video                  : 30ms
Stream size                              : 37.7 MiB (13%)
Language                                 : Japanese
Default                                  : No
Forced                                   : No

Text
ID                                       : 4
Format                                   : ASS
Codec ID                                 : S_TEXT/ASS
Codec ID/Info                            : Advanced Sub Station Alpha
Compression mode                         : Lossless
Title                                    : ass
Language                                 : Russian
Default                                  : No
Forced                                   : No
01. Diva
02. Black Shooting Star
03. Homunculus
04. Death Crow
05. Cockatrice
06. White Prince
07. Billiken
08. The Fifth Member...
09. Hot Spring
10. Decisive Battle of Akihabara
11. Red Shoes
12. Black Diva
13. Tsubame
14. Going After the Daily Light
15. Castle of Sand
16. Anima Mundi
17. Newborn
18. Hell
19. Mask
20. When the Wings Spread
21. Recall
22. Ima Hitotabi no Maboroshi
23. Altar City
24. Garden without Paradise
25. The Trip Begins
26. Birth



Семпл:



   Похожие торренты   Торрент   Размер 
В этой теме нет новых непрочитанных сообщений. Кибер-команда Акихабары - Фильм / Cyberteam in Akihabara - 2011 Summer Vacations [Movie] (1999) DVDRip AVC | Persona99

141 | 28

1.33 ГБ

В этой теме нет новых непрочитанных сообщений. Скуби-Ду и кибер-погоня / Скуби-Ду и кибер-гонка / Scooby-Doo and the Cyber Chase (2001) BDRip от HQCLUB

150 | 4

1.46 ГБ

В этой теме нет новых непрочитанных сообщений. Кибер-террор / Cyberbully (2011) DVDRip

4 | 2

1.37 ГБ

В этой теме нет новых непрочитанных сообщений. Кибер-террор / Cyberbully (2011) DVDRip

1 | 2

719.98 МБ

В этой теме нет новых непрочитанных сообщений. Кибер-террор / Cyberbully (2011) DVDRip | Elrom

7 | 3

1.37 ГБ

В этой теме нет новых непрочитанных сообщений. Кибер-Город Эдо 808 / Cyber City Oedo 808 (1990) DVDRip

102 | 9

1.02 ГБ

В этой теме нет новых непрочитанных сообщений. Аватар: Кибер Войны / Avatar: Cyber Wars (2004) DVDRip

18 | 4

700.17 МБ




Вы не можете начинать темы
Вы не можете отвечать на сообщения
Вы не можете редактировать свои сообщения
Вы не можете удалять свои сообщения
Вы не можете добавлять вложения

Перейти:  
Для Мосгорсуда, Роскомнадзора и рекламодателей: mosgorsud-torrent[собачка]yandex.ru
 Вход
ppkBB3cker v.2 © 2008-2014 @ PPK
[ Time : 2.150s | 15 Queries | GZIP : Off ]

Торрент трекер RUTOR.IN, Не можете зайти на rutor.org? Какой новый адрес рутор? Какое зеркало рутор? Не работает rutor.org и зеркала? Тогда наш торрент специально для вас. Rutor.in неофициальное зеркало rutor. В случае если у Вас заблокирован rutor или вдруг Вы не можете на него зайти, то Вы без труда сможете скачать бесплатно и без рекламы последние новинки кино, игр, сериалов и прочего у нас, на Rutor.in. Не нужно использовать прокси, чтобы зайти на рутор, достаточно воспользоваться нашим ресурсом. Все новые фильмы, игры, сериалы, книги и музыка за 2013 и 2014 годы через торрент бесплатно. Скачивайте фильмы в хорошем качестве, игры для пк, xbox, playstation без регистрации. У нас вы найдете новые Зарубежные сериалы и Русские сериалы 2013, 2014, 2015 годов. Оставайтесь с нами, качайте любимые фильмы, игры, сериалы, книги и музыку.