img image001 image001 image001 image001 image001 image001 image001 image001 image001 image001 image001 image001 image001 image001 image001

Planets Sun Sun Sun
Статистика раздачи
Автор: Nickolas3434 | Размер: 12.12 ГБ | Добавлен: 22 июн 2014
Раздают: 449    Качают: 67
Скачать торрент
Скачать торрент
Описание торрента

СообщениеДобавлено: 22 июн 2014 

Ветер крепчает / Kaze Tachinu / The Wind Rises


Год выпуска: 2013
Страна: Япония
Производство: Buena Vista Home Entertainment, Hakuhodo DY Media Partners, KDDI Corporation
Слоган: «Ikineba»
Жанр: аниме, мультфильм, драма, биография
Продолжительность: 02:06:30
Перевод: Профессиональный (полное дублирование) Blu-ray
Субтитры: Русские (полные), английские (полные)

Режиссер: Хаяо Миядзаки / Hayao Miyazaki
Сценарий: Хаяо Миядзаки / Hayao Miyazaki
Продюсер: Тосио Судзуки / Toshio Suzuki, Наойя Фудзимаки / Naoya Fujimaki, Риоичи Фукуяма / Ryoichi Fukuyama, Кодзи Хошино / Koji Hoshino, Нобуо Каваками / Nobuo Kawakami
Композитор: Джо Хисаиси / Joe Hisaishi

В ролях:

Хидеаки Анно (Jirô Horikoshi, озвучка), Хидэтоси Нисидзима (Honjô, озвучка), Миори Такимото (Naoko Satomi, озвучка), Масахико Нисимура (Kurokawa, озвучка), Мансай Номура (Giovanni Battista Caproni, озвучка), Морио Кадзама (Satomi, озвучка), Дзюн Кунимура (Hattori, озвучка), Мираи Сида (Kayo Horikoshi, озвучка), Кейко Такэсита (Jirô's Mother, озвучка), Синобу Отакэ (Kurokawa's Wife, озвучка), Джозеф Гордон-Левитт (Jirô Horikoshi, озвучка), Джон Красински (Honjô, озвучка)

Дублёры: Борис Алексеев (Jirô Horikoshi), Василий Марков (Honjô), Елена Симанович (Naoko Satomi), Николай Шмаргун (Giovanni Battista Caproni), Людмила Гуськова (Jirô's Mother), Андрей Андреев, Вячеслав Бухтояров, Екатерина Скуфинская, Константин Афонин, Екатерина Астрединова (Kayo Horikoshi / Kinu), Юрий Овчинников (Castorp), Александр Фильченко (Mrs. Kurokawa)

Сборы в США: $5 209 580
Сборы в России: $849 508
Сборы в мире: $133 409 580

Мировая премьера: 20 июля 2013
Премьера (РФ): 20 февраля 2014, «Централ Партнершип»
Релиз на DVD: 25 марта 2014, «ВС трейд»
Релиз на Blu-ray: 29 июля 2014, «Reanimedia»

Описание: Мальчик Дзиро мечтает о полетах и красивых самолетах, способных обогнать ветер. Вот только пилотом ему не стать - он с рождения близорук. Но Дзиро не расстается с мечтой о небе, он начинает придумывать идеальный самолет и со временем становится одним из лучших авиаконструкторов мира. На пути к успеху он не только встретит много интересных людей, переживет Великое землетрясение в Токио и жестокие войны, но и обретет любовь своей жизни - прекрасную Наоко.

Рейтинг:



MPAA: PG-13 - Детям до 13 лет просмотр не желателен

Видеоряд от HDWing.
Сборка рипа - Respector.

Формат: Matroska
Видео: 1920x1038 at 23.976 fps, x264@L4.1, ~12.3 Мbps avg
Aудио #1: Russian: 48 kHz, AC3, 1 ch, ~192.00 kbps avg |Дубляж, Blu-ray|
Aудио #2: English: 48 kHz, AC3, 1 ch, ~192.00 kbps avg
Aудио #3: Japanese: 48 kHz, DTS, 1 ch, ~768.00 kbps avg

В качестве звуковых эффектов в фильме в основном используются человеческие голоса.
Главный герой Дзиро Хорикоси - это вымышленный персонаж, который был создан на основе смеси реальных историй жизни Тацуо Хори (Tatsuo Hori), автора одноименного рассказа, и Джиро Хорикоси (Jiro Horikoshi) - дизайнера самолета «Zero fighter». Название же фильма взято из перевода Хори цитаты из стихотворения Поля Валери «Le cimetiere marin».
[*]Хаяо Миядзаки на Венецианском кинофестивале заявил, что это его последняя полнометражная работа.
General
Unique ID : 222943492176744907688014284745798451233 (0xA7B95AD0D3AEFC6B828FB32894A60021)
Complete name : The.Wind.Rises.2013.BDRip.1080p.mkv
Format : Matroska
Format version : Version 2
File size : 12.1 GiB
Duration : 2h 6mn
Overall bit rate : 13.7 Mbps
Movie name : Respector
Encoded date : UTC 2014-06-20 12:09:59
Writing application : mkvmerge v5.5.0 ('Healer') built on Apr 24 2012 23:47:03
Writing library : libebml v1.2.3 + libmatroska v1.3.0

Video
ID : 1
Format : AVC
Format/Info : Advanced Video Codec
Format profile : High@L4.1
Format settings, CABAC : Yes
Format settings, ReFrames : 4 frames
Codec ID : V_MPEG4/ISO/AVC
Duration : 2h 6mn
Bit rate : 12.3 Mbps
Width : 1 920 pixels
Height : 1 038 pixels
Display aspect ratio : 1.85:1
Frame rate mode : Constant
Frame rate : 23.976 fps
Color space : YUV
Chroma subsampling : 4:2:0
Bit depth : 8 bits
Scan type : Progressive
Bits/(Pixel*Frame) : 0.257
Stream size : 10.9 GiB (90%)
Writing library : x264 core 142 r2389+41 02cb608 tMod [8-bit@all X86_64]
Encoding settings : cabac=1 / ref=4 / deblock=1:0:0 / analyse=0x3:0x133 / me=umh / subme=11 / psy=1 / fade_compensate=0.00 / psy_rd=0.60:0.00 / mixed_ref=1 / me_range=64 / chroma_me=1 / trellis=2 / 8x8dct=1 / cqm=0 / deadzone=21,11 / fast_pskip=0 / chroma_qp_offset=-2 / threads=18 / lookahead_threads=4 / sliced_threads=0 / nr=0 / decimate=0 / interlaced=0 / bluray_compat=0 / constrained_intra=0 / fgo=0 / bframes=12 / b_pyramid=2 / b_adapt=2 / b_bias=0 / direct=3 / weightb=1 / open_gop=0 / weightp=2 / keyint=250 / keyint_min=23 / scenecut=40 / intra_refresh=0 / rc_lookahead=120 / rc=crf / mbtree=0 / crf=15.0000 / qcomp=0.70 / qpmin=0:0:0 / qpmax=69:69:69 / qpstep=4 / vbv_maxrate=50000 / vbv_bufsize=62500 / crf_max=0.0 / nal_hrd=none / filler=0 / ip_ratio=1.40 / pb_ratio=1.30 / aq=1:1.00 / aq-sensitivity=10.00 / aq-factor=1.00:1.00:1.00 / aq2=0 / aq3=0
Language : English
Default : Yes
Forced : No

Audio #1
ID : 2
Format : AC-3
Format/Info : Audio Coding 3
Mode extension : CM (complete main)
Format settings, Endianness : Big
Codec ID : A_AC3
Duration : 2h 6mn
Bit rate mode : Constant
Bit rate : 192 Kbps
Channel(s) : 1 channel
Channel positions : Front: C
Sampling rate : 48.0 KHz
Bit depth : 16 bits
Compression mode : Lossy
Stream size : 174 MiB (1%)
Language : Russian
Default : Yes
Forced : Yes

Audio #2
ID : 3
Format : AC-3
Format/Info : Audio Coding 3
Mode extension : CM (complete main)
Format settings, Endianness : Big
Codec ID : A_AC3
Duration : 2h 6mn
Bit rate mode : Constant
Bit rate : 192 Kbps
Channel(s) : 1 channel
Channel positions : Front: C
Sampling rate : 48.0 KHz
Bit depth : 16 bits
Compression mode : Lossy
Stream size : 174 MiB (1%)
Language : English
Default : No
Forced : No

Audio #3
ID : 4
Format : DTS
Format/Info : Digital Theater Systems
Mode : 16
Format settings, Endianness : Big
Codec ID : A_DTS
Duration : 2h 6mn
Bit rate mode : Constant
Bit rate : 768 Kbps
Channel(s) : 1 channel
Channel positions : Front: C
Sampling rate : 48.0 KHz
Bit depth : 24 bits
Compression mode : Lossy
Stream size : 695 MiB (6%)
Language : Japanese
Default : No
Forced : No

Text #1
ID : 5
Format : UTF-8
Codec ID : S_TEXT/UTF8
Codec ID/Info : UTF-8 Plain Text
Language : Russian
Default : No
Forced : No

Text #2
ID : 6
Format : UTF-8
Codec ID : S_TEXT/UTF8
Codec ID/Info : UTF-8 Plain Text
Language : English
Default : No
Forced : No

Menu
00:00:00.000 : ja:00:00:00.000
00:07:09.220 : ja:00:07:09.220
00:12:52.689 : ja:00:12:52.689
00:21:53.979 : ja:00:21:53.979
00:30:06.471 : ja:00:30:06.471
00:37:49.434 : ja:00:37:49.434
00:44:57.528 : ja:00:44:57.528
00:52:59.635 : ja:00:52:59.635
01:00:33.755 : ja:01:00:33.755
01:08:06.290 : ja:01:08:06.290
01:17:12.920 : ja:01:17:12.920
01:28:44.027 : ja:01:28:44.027
01:35:20.548 : ja:01:35:20.548
01:46:39.059 : ja:01:46:39.059
01:52:45.884 : ja:01:52:45.884
02:02:56.744 : ja:02:02:56.744




   Похожие торренты   Торрент   Размер 
В этой теме нет новых непрочитанных сообщений. Ветер крепчает / Kaze Tachinu / The Wind Rises (2013) BDRip 720p

321 | 31

5.27 ГБ

В этой теме нет новых непрочитанных сообщений. Ветер крепчает / Kaze Tachinu / The Wind Rises (2013) BDRip от Stranik 2.0 | D

61 | 22

1.99 ГБ

В этой теме нет новых непрочитанных сообщений. Ветер крепчает / The Wind Rises / Kaze tachinu (2013) BDRip 720p от HQ-ViDEO

198 | 56

4.65 ГБ

В этой теме нет новых непрочитанных сообщений. Ветер крепчает / Kaze Tachinu / The Wind Rises (2013) BDRip-AVC от HELLYWOOD | Лицензия

186 | 26

2.18 ГБ

В этой теме нет новых непрочитанных сообщений. Ветер крепчает / Kaze Tachinu / The Wind Rises (2013) DVDRip | D

72 | 24

1.92 ГБ

В этой теме нет новых непрочитанных сообщений. Ветер крепчает / Kaze Tachinu (2013) BDRip 1080p от NNNB

125 | 29

5.77 ГБ

В этой теме нет новых непрочитанных сообщений. Ветер крепчает / Kaze Tachinu (2013) HDRip-1080p | Трейлер

47 | 6

109.69 МБ




Вы не можете начинать темы
Вы не можете отвечать на сообщения
Вы не можете редактировать свои сообщения
Вы не можете удалять свои сообщения
Вы не можете добавлять вложения

Перейти:  
Для Мосгорсуда, Роскомнадзора и рекламодателей: mosgorsud-torrent[собачка]yandex.ru
 Вход
ppkBB3cker v.2 © 2008-2014 @ PPK
[ Time : 1.897s | 16 Queries | GZIP : Off ]

Торрент трекер RUTOR.IN, Не можете зайти на rutor.org? Какой новый адрес рутор? Какое зеркало рутор? Не работает rutor.org и зеркала? Тогда наш торрент специально для вас. Rutor.in неофициальное зеркало rutor. В случае если у Вас заблокирован rutor или вдруг Вы не можете на него зайти, то Вы без труда сможете скачать бесплатно и без рекламы последние новинки кино, игр, сериалов и прочего у нас, на Rutor.in. Не нужно использовать прокси, чтобы зайти на рутор, достаточно воспользоваться нашим ресурсом. Все новые фильмы, игры, сериалы, книги и музыка за 2013 и 2014 годы через торрент бесплатно. Скачивайте фильмы в хорошем качестве, игры для пк, xbox, playstation без регистрации. У нас вы найдете новые Зарубежные сериалы и Русские сериалы 2013, 2014, 2015 годов. Оставайтесь с нами, качайте любимые фильмы, игры, сериалы, книги и музыку.
cron