img image001 image001 image001 image001 image001 image001 image001 image001 image001 image001 image001 image001 image001 image001 image001

Planets Sun Sun Sun
Статистика раздачи
Автор: Nickolas3434 | Размер: 1.99 ГБ | Добавлен: 25 июн 2014
Раздают: 61    Качают: 22
Скачать торрент
Скачать торрент
Описание торрента

СообщениеДобавлено: 25 июн 2014 

Информация о фильме

Название : Ветер крепчает
Оригинальное название : Kaze Tachinu / 風立ちぬ
Год выхода : 2013
Жанр : драма, биография, исторический
Режиссер : Хаяо Миядзаки
Роли озвучивали : Хидеаки Анно, Дзюн Кунимура, Мираи Сида, Миори Такимото, Хидэтоси Нисидзима, Мансай Номура, Масахико Нисимура, Стив Элперт, Кейко Такэсита, Синобу Отакэ

Описание : История начинается со знакомства с десятилетним Дзиро Хорикоси. Он мечтает о небе и хочет стать пилотом. Проходят годы, и Дзиро став авиаконструктором работает над новым самолетом. Ему поручено создать палубный истребитель, так как начало войны — дело времени.
В основу сюжета произведения ляжет одноимённая манга авторства самого Миядзаки, публиковавшаяся в журнале Model Graphix в 2009 году, рассказывающая о японском конструкторе Дзиро Хорикоси, известного своей работой над истребителем Mitsubishi A6M Zero. Также источником сюжета является рассказ писателя Тацуо Хори «Ветер крепчает», написанный в 1936-37 годах. Название рассказа является цитатой одной из строк стихотворения Поля Валери «Кладбище у моря».

Доп. информация : На БД диске весь звук был моноканальным (говорят что так решил сам Миядзаки), русских сабов в японском издании не было, поэтому я их взял из своей прошлой раздачи.
Страна : Япония
Производство : Studio Ghibli
Продолжительность : 02:06:30
Перевод : Профессиональный (полное дублирование) Reanimedia
Автор рипа и релиза :

Файл
Формат видео : AVI
Качество : BDRip (исходник: BDRemux - The.Wind.Rises.2013.1080p.BluRay.AVC.DTS-HD.MA.1.0-RARBG)

Видео: XviD, 720x384 (1.85:1), 1602 Кбит/с, 23.976 fps, 8 bit
Аудио 1: Русский, AC3, 192 Кбит/с, 48.0 Hz, 1 ch (в составе контейнера)
Аудио 2: Английский, AC3, 192 Кбит/с, 48.0 Hz, 1 ch (в составе контейнера)
Аудио 3: Японский, AC3, 256 Кбит/с, 48.0 Hz, 1 ch (в составе контейнера)
Субтитры 1(srt): Русские [Перевод с дубляжа Reanimedia] (внешним файлом)
Субтитры 2(srt): Английские [с BD] (внешним файлом)









General
Complete name : E:/Torrent_2/Kaze Tachinu (2013, XviD BDRip, RUS ENG JAP+SUB) [Stranik 2.0]/Kaze Tachinu (2013, XviD BDRip, RUS ENG JAP+SUB) [Stranik 2.0].avi
Format : AVI
Format/Info : Audio Video Interleave
Format profile : OpenDML
Format settings : rec
File size : 1.99 GiB
Duration : 2h 6mn
Overall bit rate : 2 251 Kbps
Writing application : AVI-Mux GUI 1.17.8.3, Feb 16 201019:42:50

Video #0
ID : 0
Format : MPEG-4 Visual
Format profile : Advanced Simple@L5
Format settings, BVOP : 1
Format settings, QPel : No
Format settings, GMC : No warppoints
Format settings, Matrix : Default (H.263)
Codec ID : XVID
Codec ID/Hint : XviD
Duration : 2h 6mn
Bit rate : 1 602 Kbps
Width : 720 pixels
Height : 384 pixels
Display aspect ratio : 1.85:1
Frame rate : 23.976 fps
Color space : YUV
Chroma subsampling : 4:2:0
Bit depth : 8 bits
Scan type : Progressive
Compression mode : Lossy
Bits/(Pixel*Frame) : 0.242
Stream size : 1.42 GiB (71%)
Writing library : XviD 1.2.1 (UTC 2008-12-04)

Audio #1
ID : 1
Format : AC-3
Format/Info : Audio Coding 3
Mode extension : CM (complete main)
Format settings, Endianness : Big
Codec ID : 2000
Duration : 2h 6mn
Bit rate mode : Constant
Bit rate : 192 Kbps
Channel(s) : 2 channels
Channel(s)_Original : 1 channel
Channel positions : Front: C
Sampling rate : 48.0 KHz
Bit depth : 16 bits
Compression mode : Lossy
Stream size : 174 MiB (9%)
Alignment : Aligned on interleaves
Interleave, duration : 64 ms (1.53 video frames)
Interleave, preload duration : 192 ms
Title : Russian

Audio #2
ID : 2
Format : AC-3
Format/Info : Audio Coding 3
Mode extension : CM (complete main)
Format settings, Endianness : Big
Codec ID : 2000
Duration : 2h 6mn
Bit rate mode : Constant
Bit rate : 192 Kbps
Channel(s) : 2 channels
Channel(s)_Original : 1 channel
Channel positions : Front: C
Sampling rate : 48.0 KHz
Bit depth : 16 bits
Compression mode : Lossy
Stream size : 174 MiB (9%)
Alignment : Aligned on interleaves
Interleave, duration : 64 ms (1.53 video frames)
Interleave, preload duration : 192 ms
Title : English

Audio #3
ID : 3
Format : AC-3
Format/Info : Audio Coding 3
Mode extension : CM (complete main)
Format settings, Endianness : Big
Codec ID : 2000
Duration : 2h 6mn
Bit rate mode : Constant
Bit rate : 256 Kbps
Channel(s) : 2 channels
Channel(s)_Original : 1 channel
Channel positions : Front: C
Sampling rate : 48.0 KHz
Bit depth : 16 bits
Compression mode : Lossy
Stream size : 232 MiB (11%)
Alignment : Aligned on interleaves
Interleave, duration : 64 ms (1.53 video frames)
Interleave, preload duration : 192 ms
Title : Japanese







   Похожие торренты   Торрент   Размер 
В этой теме нет новых непрочитанных сообщений. Ветер крепчает / Kaze Tachinu / The Wind Rises (2013) BDRip 1080p

449 | 67

12.12 ГБ

В этой теме нет новых непрочитанных сообщений. Ветер крепчает / Kaze Tachinu / The Wind Rises (2013) BDRip 720p

321 | 31

5.27 ГБ

В этой теме нет новых непрочитанных сообщений. Ветер крепчает / The Wind Rises / Kaze tachinu (2013) BDRip 720p от HQ-ViDEO

198 | 56

4.65 ГБ

В этой теме нет новых непрочитанных сообщений. Ветер крепчает / Kaze Tachinu / The Wind Rises (2013) BDRip-AVC от HELLYWOOD | Лицензия

186 | 26

2.18 ГБ

В этой теме нет новых непрочитанных сообщений. Ветер крепчает / Kaze Tachinu / The Wind Rises (2013) DVDRip | D

72 | 24

1.92 ГБ

В этой теме нет новых непрочитанных сообщений. Ветер крепчает / Kaze tachinu (2013) BDRip 720p

345 | 54

2.98 ГБ

В этой теме нет новых непрочитанных сообщений. Ветер крепчает / Kaze tachinu (2013) BDRip-AVC | iPad | D

17 | 6

2.05 ГБ




Вы не можете начинать темы
Вы не можете отвечать на сообщения
Вы не можете редактировать свои сообщения
Вы не можете удалять свои сообщения
Вы не можете добавлять вложения

Перейти:  
Для Мосгорсуда, Роскомнадзора и рекламодателей: mosgorsud-torrent[собачка]yandex.ru
 Вход
ppkBB3cker v.2 © 2008-2014 @ PPK
[ Time : 0.022s | 15 Queries | GZIP : Off ]

Торрент трекер RUTOR.IN, Не можете зайти на rutor.org? Какой новый адрес рутор? Какое зеркало рутор? Не работает rutor.org и зеркала? Тогда наш торрент специально для вас. Rutor.in неофициальное зеркало rutor. В случае если у Вас заблокирован rutor или вдруг Вы не можете на него зайти, то Вы без труда сможете скачать бесплатно и без рекламы последние новинки кино, игр, сериалов и прочего у нас, на Rutor.in. Не нужно использовать прокси, чтобы зайти на рутор, достаточно воспользоваться нашим ресурсом. Все новые фильмы, игры, сериалы, книги и музыка за 2013 и 2014 годы через торрент бесплатно. Скачивайте фильмы в хорошем качестве, игры для пк, xbox, playstation без регистрации. У нас вы найдете новые Зарубежные сериалы и Русские сериалы 2013, 2014, 2015 годов. Оставайтесь с нами, качайте любимые фильмы, игры, сериалы, книги и музыку.