img image001 image001 image001 image001 image001 image001 image001 image001 image001 image001 image001 image001 image001 image001 image001

Planets Sun Sun Sun
Статистика раздачи
Автор: Nickolas3434 | Размер: 6.41 ГБ | Добавлен: 03 июл 2014
Раздают: 48    Качают: 27
Скачать торрент
Скачать торрент
Описание торрента

СообщениеДобавлено: 03 июл 2014 

Информация о фильме

Название : Солти Рэй
Оригинальное название : Solty Rei / ソルティレイ
Год выхода : 2005
Жанр : Приключения, фантастика, меха, драма
Режиссер : Хирайкэ Ёсимаса
Роли озвучивали : Люси Кристиан, Кара Эдвардс, Кристофер Сабат, Кэрри Сэвадж, Стефани Янг, Нацуко Куватани, Дзёдзи Наката, Саяка Охара, Момоко Саито, Маркус Ллойд


Описание : В довольно отдалённом будущем на человечество обрушилось тяжёлое глобальное бедствие: разряд магнитного поля планеты привёл к мощнейшему взрыву, в результате чего великое множество людей погибло или пропало без вести, а ещё больше осталось инвалидами. Огромный спрос на протезы и заменители утраченных конечностей привёл к расцвету кибертроники. В этой сфере особенно преуспела корпорация RUC, разработавшая Resemble, особую технологию, которая позволяла заменять электроникой до 60% тела человека.

Среди пропавших в глобальной катастрофе оказалась и единственная дочь Роя Реванта, зарабатывающего на жизнь поимкой объявленных в розыск преступников. Тяжко переживая утрату, он с головой уходит в работу - отчаянно кидается на отъявленных головорезов, зачастую киборгов, чем снискал себе славу безумца, которого боятся и свои, и чужие. Но однажды на Роя буквально сваливается милое зеленоволосое существо, которому суждено растопить лёд его одиночества. Правда, прочно войдя в жизнь одинокого волка, трогательная девчушка Солти принесла с собой и неразрешимую загадку - кроме того, что девочка ничего не помнит о своём прошлом, её тело оказывается на 100% Resemble, что даёт ей в момент гнева исполинскую силу. Вместе Рою и Солти предстоит раскрыть эту тайну...
Страна : Япония
Производство : Anime International Company (AIC), FUNimation Productions Ltd., Gonzo, Solty Rock Project
Продолжительность : ~24 мин (24 серии)
Перевод: Любительский (многоголосый, закадровый)

Озвучивали: BadWolf, Eva, Becky (OpenDub)

Тайминг: BadWolf (1-6), Archer (7-24)
Релиз : kievbear1
Файл
Формат видео : MKV
Качество : DVDRip

Видео : AVC, 848Х480 (16:9), 23.976 fps, ~1250 Kbps
Аудио 1 : Русский, AC3, 192 Кбит/с, 48.0 Hz, 2 ch (в составе контейнера)
Аудио 2 : Японский, MP3, 128 Кбит/с, 48.0 Hz, 2 ch (в составе контейнера)
Субтитры (ASS): Русские [Перевод: yHuKyM] (внешним файлом)



01. The City Where the Aurora Falls / Город, где пала Аврора
02. A New Dawn / Новый рассвет
03. The Girl in Blue / Девочка в синем
04. Friend / Друг
05. Waterside Panic / Паника на воде
06. Beloved Daughter / Любимая доч
07. A Little Blue Demon Comes to Visit / И пришел Маленький Демон
08. Revenge / Месть
09. Girls' Day Off / У девчонок выходной
10. Treasure and Rescue / Сокровища и Спасение
11. Birthday Game / Игра на День Рождения
12. Tears: After the Showdown / Слезы
13. Distance / Дистанция
14. Heavy Hearts / Сердце во тьме
15. Safe Haven / Спокойные Небеса
16. Half Kidding / Это была шутка...
17. Lady / ЛЕДИ
18. Welcome Home / Возвращение домой
19. All Together / Общий сбор
20. Catastrophe Calls / Пришествие Катастрофы
21. The Time for Truth / Время Правды
22. Three Girls, Three Intentions / Чувства мои, её и девочки
23. Farewell Message / Последнее Послание
24. The Future / После Всего





General
Unique ID : 194098819741955448296672746287402030168 (0x920612AA4DB268A58A7BA050232F9458)
Complete name : I:torrents[OpenDub]_Solty_Rei_[TV]_[BadWolf_&_Eva][OpenDub]_Solty_Rei_[01]_[RUS_JAP]_[848x480_x264_AC3]_[BadWolf_&_Eva].mkv
Format : Matroska
File size : 274 MiB
Duration : 23mn 27s
Overall bit rate : 1 634 Kbps
Encoded date : UTC 2012-01-12 09:57:50
Writing application : mkvmerge v2.4.2 ('Oh My God') built on Jan 18 2009 17:30:28
Writing library : libebml v0.7.7 + libmatroska v0.8.1

Video
ID : 1
Format : AVC
Format/Info : Advanced Video Codec
Format profile : High@L5.1
Format settings, CABAC : Yes
Format settings, ReFrames : 16 frames
Format settings, GOP : M=11, N=50
Codec ID : V_MPEG4/ISO/AVC
Duration : 23mn 27s
Bit rate : 1 250 Kbps
Width : 848 pixels
Height : 480 pixels
Display aspect ratio : 16:9
Frame rate : 23.976 fps
Color space : YUV
Chroma subsampling : 4:2:0
Bit depth : 8 bits
Scan type : Progressive
Bits/(Pixel*Frame) : 0.128
Stream size : 204 MiB (75%)
Writing library : x264 core 54 svn-635M
Encoding settings : cabac=1 / ref=16 / deblock=0:0:0 / analyse=0x3:0x133 / me=hex / subme=6 / brdo=1 / mixed_ref=1 / me_range=16 / chroma_me=1 / trellis=0 / 8x8dct=1 / cqm=0 / deadzone=21,11 / chroma_qp_offset=0 / threads=1 / nr=0 / decimate=1 / mbaff=0 / bframes=16 / b_pyramid=1 / b_adapt=1 / b_bias=0 / direct=1 / wpredb=1 / bime=0 / keyint=50 / keyint_min=25 / scenecut=40 / rc=2pass / bitrate=1250 / ratetol=99.0 / rceq='blurCplx^(1-qComp)' / qcomp=0.60 / qpmin=10 / qpmax=51 / qpstep=4 / cplxblur=20.0 / qblur=0.5 / ip_ratio=1.40 / pb_ratio=1.30
Language : English

Audio #1
ID : 2
Format : AC-3
Format/Info : Audio Coding 3
Mode extension : CM (complete main)
Codec ID : A_AC3
Duration : 23mn 27s
Bit rate mode : Constant
Bit rate : 192 Kbps
Channel(s) : 2 channels
Channel positions : Front: L R
Sampling rate : 48.0 KHz
Bit depth : 16 bits
Compression mode : Lossy
Stream size : 32.2 MiB (12%)
Language : Russian

Audio #2
ID : 3
Format : MPEG Audio
Format version : Version 1
Format profile : Layer 3
Codec ID : A_MPEG/L3
Codec ID/Hint : MP3
Duration : 23mn 27s
Bit rate mode : Constant
Bit rate : 192 Kbps
Channel(s) : 2 channels
Sampling rate : 48.0 KHz
Compression mode : Lossy
Stream size : 32.2 MiB (12%)
Title : Japanese
Writing library : LAME3.90.3
Language : Japanese







   Похожие торренты   Торрент   Размер 
В этой теме нет новых непрочитанных сообщений. Солти Рэй / Solty Rei [OVA] [1 из 1] (2005) DVDRip | L

64 | 3

507.76 МБ

В этой теме нет новых непрочитанных сообщений. Bad Boys Blue - 1985-2005 Video Collection (2005) DVDRip-AVC от BT-Club

17 | 5

1004.98 МБ

В этой теме нет новых непрочитанных сообщений. Bad Boys Blue ‎– 1985-2005 Video Collection (2005) DVDRip-AVC

0 | 0

817.44 МБ

В этой теме нет новых непрочитанных сообщений. Bad Boys Blue ‎– 1985-2005 Video Collection (2005) DVDRip-AVC

12 | 0

807.39 МБ

В этой теме нет новых непрочитанных сообщений. Моральный кодекс - МХАТ 30 июня 2005 (2005) DVDRip от Киномагия

2 | 3

1.37 ГБ

В этой теме нет новых непрочитанных сообщений. Китайская одиссея / Chinese Odyssey (1994-2002) DVDRip + Китaйская истoрия / A Chinеse Tall Stоry (2005) DVDRip

4 | 5

4.51 ГБ

В этой теме нет новых непрочитанных сообщений. Вау-вау / Wah-Wah (2005) DVDRip | P2

34 | 8

1.37 ГБ




Вы не можете начинать темы
Вы не можете отвечать на сообщения
Вы не можете редактировать свои сообщения
Вы не можете удалять свои сообщения
Вы не можете добавлять вложения

Перейти:  
Для Мосгорсуда, Роскомнадзора и рекламодателей: mosgorsud-torrent[собачка]yandex.ru
 Вход
ppkBB3cker v.2 © 2008-2014 @ PPK
[ Time : 0.040s | 16 Queries | GZIP : Off ]

Торрент трекер RUTOR.IN, Не можете зайти на rutor.org? Какой новый адрес рутор? Какое зеркало рутор? Не работает rutor.org и зеркала? Тогда наш торрент специально для вас. Rutor.in неофициальное зеркало rutor. В случае если у Вас заблокирован rutor или вдруг Вы не можете на него зайти, то Вы без труда сможете скачать бесплатно и без рекламы последние новинки кино, игр, сериалов и прочего у нас, на Rutor.in. Не нужно использовать прокси, чтобы зайти на рутор, достаточно воспользоваться нашим ресурсом. Все новые фильмы, игры, сериалы, книги и музыка за 2013 и 2014 годы через торрент бесплатно. Скачивайте фильмы в хорошем качестве, игры для пк, xbox, playstation без регистрации. У нас вы найдете новые Зарубежные сериалы и Русские сериалы 2013, 2014, 2015 годов. Оставайтесь с нами, качайте любимые фильмы, игры, сериалы, книги и музыку.
cron