img image001 image001 image001 image001 image001 image001 image001 image001 image001 image001 image001 image001 image001 image001 image001

Planets Sun Sun Sun
Статистика раздачи
Автор: Nickolas3434 | Размер: 507.76 МБ | Добавлен: 02 июл 2014
Раздают: 64    Качают: 3
Скачать торрент
Скачать торрент
Описание торрента

СообщениеДобавлено: 02 июл 2014 

Информация о фильме

Название : Солти Рэй
Оригинальное название : Solty Rei [Extra episode] / ソルティレイ
Год выхода : 2005
Жанр : Приключения, фантастика, меха, драма
Режиссер : Хирайкэ Ёсимаса
Роли озвучивали : Люси Кристиан, Кара Эдвардс, Кристофер Сабат, Кэрри Сэвадж, Стефани Янг, Нацуко Куватани, Дзёдзи Наката, Саяка Охара, Момоко Саито, Маркус Ллойд


Описание : В довольно отдалённом будущем на человечество обрушилось тяжёлое глобальное бедствие: разряд магнитного поля планеты привёл к мощнейшему взрыву, в результате чего великое множество людей погибло или пропало без вести, а ещё больше осталось инвалидами. Огромный спрос на протезы и заменители утраченных конечностей привёл к расцвету кибертроники. В этой сфере особенно преуспела корпорация RUC, разработавшая Resemble, особую технологию, которая позволяла заменять электроникой до 60% тела человека.

Среди пропавших в глобальной катастрофе оказалась и единственная дочь Роя Реванта, зарабатывающего на жизнь поимкой объявленных в розыск преступников. Тяжко переживая утрату, он с головой уходит в работу - отчаянно кидается на отъявленных головорезов, зачастую киборгов, чем снискал себе славу безумца, которого боятся и свои, и чужие. Но однажды на Роя буквально сваливается милое зеленоволосое существо, которому суждено растопить лёд его одиночества. Правда, прочно войдя в жизнь одинокого волка, трогательная девчушка Солти принесла с собой и неразрешимую загадку - кроме того, что девочка ничего не помнит о своём прошлом, её тело оказывается на 100% Resemble, что даёт ей в момент гнева исполинскую силу. Вместе Рою и Солти предстоит раскрыть эту тайну...
Страна : Япония
Производство : Anime International Company (AIC), FUNimation Productions Ltd., Gonzo, Solty Rock Project
Продолжительность : 43 мин
Перевод: Любительский (многоголосый, закадровый)

Озвучивали: Oliva, Tasha, Ali, DVd
Релиз : Rumiko
Файл
Формат видео : MKV
Качество : DVDRip

Видео : AVC, 848Х480 (16:9), 23.976 fps, ~1250 Kbps
Аудио 1 : Русский, MP3, 192 Кбит/с, 48.0 Hz, 2 ch (в составе контейнера)
Аудио 2 : Японский, MP3, 192 Кбит/с, 48.0 Hz, 2 ch (в составе контейнера)
Субтитры (ASS): Русские [Перевод: Pelikan] (в составе контейнера)






General
Unique ID : 172600587182458646598620458860519576160 (0x81D9A9F72496667E96C32BC4605B5260)
Complete name : I:torrentsExtraSoltyRei-Extra.Episode.[NAG&Oliva&Tasha].rus.mkv
Format : Matroska
Format version : Version 1
File size : 508 MiB
Duration : 43mn 25s
Overall bit rate : 1 635 Kbps
Encoded date : UTC 2008-05-20 17:24:54
Writing application : mkvmerge v2.1.0 ('Another Place To Fall') built on Aug 19 2007 13:40:07
Writing library : libebml v0.7.7 + libmatroska v0.8.1

Video #1
ID : 1
Format : AVC
Format/Info : Advanced Video Codec
Format profile : High@L5.1
Format settings, CABAC : Yes
Format settings, ReFrames : 16 frames
Format settings, GOP : N=1
Codec ID : V_MPEG4/ISO/AVC
Duration : 43mn 25s
Bit rate : 1 250 Kbps
Width : 848 pixels
Height : 480 pixels
Display aspect ratio : 16:9
Frame rate mode : Constant
Frame rate : 23.976 fps
Color space : YUV
Chroma subsampling : 4:2:0
Bit depth : 8 bits
Scan type : Progressive
Bits/(Pixel*Frame) : 0.128
Stream size : 378 MiB (75%)
Writing library : x264 core 54 svn-635M
Encoding settings : cabac=1 / ref=16 / deblock=0:0:0 / analyse=0x3:0x133 / me=hex / subme=6 / brdo=1 / mixed_ref=1 / me_range=16 / chroma_me=1 / trellis=0 / 8x8dct=1 / cqm=0 / deadzone=21,11 / chroma_qp_offset=0 / threads=1 / nr=0 / decimate=1 / mbaff=0 / bframes=16 / b_pyramid=1 / b_adapt=1 / b_bias=0 / direct=1 / wpredb=1 / bime=0 / keyint=50 / keyint_min=25 / scenecut=40 / rc=2pass / bitrate=1250 / ratetol=99.0 / rceq='blurCplx^(1-qComp)' / qcomp=0.60 / qpmin=10 / qpmax=51 / qpstep=4 / cplxblur=20.0 / qblur=0.5 / ip_ratio=1.40 / pb_ratio=1.30
Language : English
Default : Yes
Forced : No

Audio #2
ID : 2
Format : MPEG Audio
Format version : Version 1
Format profile : Layer 3
Codec ID : A_MPEG/L3
Codec ID/Hint : MP3
Duration : 43mn 25s
Bit rate mode : Constant
Bit rate : 192 Kbps
Channel(s) : 2 channels
Sampling rate : 48.0 KHz
Compression mode : Lossy
Stream size : 59.6 MiB (12%)
Title : Russian
Language : Russian
Default : Yes
Forced : No

Audio #3
ID : 3
Format : MPEG Audio
Format version : Version 1
Format profile : Layer 3
Codec ID : A_MPEG/L3
Codec ID/Hint : MP3
Duration : 43mn 25s
Bit rate mode : Constant
Bit rate : 192 Kbps
Channel(s) : 2 channels
Sampling rate : 48.0 KHz
Compression mode : Lossy
Stream size : 59.6 MiB (12%)
Title : Japanese
Language : Japanese
Default : No
Forced : No

Text #4
ID : 4
Format : ASS
Codec ID : S_TEXT/ASS
Codec ID/Info : Advanced Sub Station Alpha
Compression mode : Lossless
Title : Russian
Language : Russian
Default : No
Forced : No







   Похожие торренты   Торрент   Размер 
В этой теме нет новых непрочитанных сообщений. Солти Рэй / Solty Rei [S01] (2005) DVDRip | L

48 | 27

6.41 ГБ

В этой теме нет новых непрочитанных сообщений. Bad Boys Blue - 1985-2005 Video Collection (2005) DVDRip-AVC от BT-Club

17 | 5

1004.98 МБ

В этой теме нет новых непрочитанных сообщений. Моральный кодекс - МХАТ 30 июня 2005 (2005) DVDRip от Киномагия

2 | 3

1.37 ГБ

В этой теме нет новых непрочитанных сообщений. Bad Boys Blue ‎– 1985-2005 Video Collection (2005) DVDRip-AVC

42 | 0

807.39 МБ

В этой теме нет новых непрочитанных сообщений. Китайская одиссея / Chinese Odyssey (1994-2002) DVDRip + Китaйская истoрия / A Chinеse Tall Stоry (2005) DVDRip

11 | 44

4.51 ГБ

В этой теме нет новых непрочитанных сообщений. 11:59 / 11:59 (2005) DVDRip

9 | 2

1008.67 МБ

В этой теме нет новых непрочитанных сообщений. Вау-вау / Wah-Wah (2005) DVDRip | P2

34 | 8

1.37 ГБ




Вы не можете начинать темы
Вы не можете отвечать на сообщения
Вы не можете редактировать свои сообщения
Вы не можете удалять свои сообщения
Вы не можете добавлять вложения

Перейти:  
Для Мосгорсуда, Роскомнадзора и рекламодателей: mosgorsud-torrent[собачка]yandex.ru
 Вход
ppkBB3cker v.2 © 2008-2014 @ PPK
[ Time : 0.025s | 17 Queries | GZIP : On ]

Торрент трекер RUTOR.IN, Не можете зайти на rutor.org? Какой новый адрес рутор? Какое зеркало рутор? Не работает rutor.org и зеркала? Тогда наш торрент специально для вас. Rutor.in неофициальное зеркало rutor. В случае если у Вас заблокирован rutor или вдруг Вы не можете на него зайти, то Вы без труда сможете скачать бесплатно и без рекламы последние новинки кино, игр, сериалов и прочего у нас, на Rutor.in. Не нужно использовать прокси, чтобы зайти на рутор, достаточно воспользоваться нашим ресурсом. Все новые фильмы, игры, сериалы, книги и музыка за 2013 и 2014 годы через торрент бесплатно. Скачивайте фильмы в хорошем качестве, игры для пк, xbox, playstation без регистрации. У нас вы найдете новые Зарубежные сериалы и Русские сериалы 2013, 2014, 2015 годов. Оставайтесь с нами, качайте любимые фильмы, игры, сериалы, книги и музыку.