img image001 image001 image001 image001 image001 image001 image001 image001 image001 image001 image001 image001 image001 image001 image001

Planets Sun Sun Sun
Статистика раздачи
Автор: Nickolas3434 | Размер: 7.95 ГБ | Добавлен: 05 июл 2014
Раздают: 148    Качают: 56
Скачать торрент
Скачать торрент
Описание торрента

СообщениеДобавлено: 05 июл 2014 


#77
Информация о фильме
    Русское название: Унесенные призраками / Волшебное путешествие Сэн-Тихиро
    Оригинальное название: Spirited Away / Sen to Chihiro no kamikakushi
    Год выхода: 2001
    Жанр: Приключения, фантастика, мистика, аниме, семейный
    Режиссер: Хаяо Миядзаки
    Выпущено: Япония
    Продолжительность: 02:04:32
    Перевод: Дублированный
    Роли озвучивали: Руми Хираги, Мийу Ирино, Мари Нацуки, Такаши Найто, Ясуко Савагучи, Тацуя Гасюин, Рюноскэ Камики, Юми Тамаи Ё Ойзуми, Коба Хаяси


Сюжет фильма
    Маленькая Тихиро вместе с мамой и папой переезжают в новый дом. Заблудившись по дороге, они оказываются в странном пустынном городе, где их ждет великолепный пир. Родители с жадностью набрасываются на еду и к ужасу девочки превращаются в свиней, став пленниками злой колдуньи Юбабы, властительницы таинственного мира древних богов и могущественных духов.
    Теперь, оказавшись одна среди магических существ и загадочных видений, отважная Тихиро должна придумать, как избавить своих родителей от чар коварной старухи и спастись из пугающего царства призраков…


Файл
    Качество: BDRip 1080p (исходник Blu-ray Disc Remux)*
    Видео: 1920x1038, 8051 Кбит/сек, 23,976 кадр/сек, AVC, x264, High@L4.1, 1.85:1, 0.168 Бит/[Пиксели*Кадры]
    Аудио 1: AC-3, 448 Кбит/сек, 6 канала(ов), 48,0 КГц - Дублированный / Русский
    Аудио 2: AC-3, 640 Кбит/сек, 6 канала(ов), 48,0 КГц - Оригинал / Японский
    Субтитры: Русские | Полные, Английские | Полные
    Форсированные субтитры: Нет
    Чаптеры (Главы): Есть



Автор Рипа: Сообщество:



Format : Matroska
Format version : Version 2
File size : 7.95 GiB
Duration : 2h 4mn
Overall bit rate : 9 143 Kbps
Movie name : Унесенные призраками.(2001).BDRip.1080p.[envy]
Encoded date : UTC 2014-07-04 04:04:35
Writing application : mkvmerge v5.8.0 ('No Sleep / Pillow') built on Sep 2 2012 15:37:04
Writing library : libebml v1.2.3 + libmatroska v1.3.0

Video
ID : 1
Format : AVC
Format/Info : Advanced Video Codec
Format profile : High@L4.1
Format settings, CABAC : Yes
Format settings, ReFrames : 4 frames
Codec ID : V_MPEG4/ISO/AVC
Duration : 2h 4mn
Bit rate : 8 051 Kbps
Width : 1 920 pixels
Height : 1 038 pixels
Display aspect ratio : 1.85:1
Frame rate mode : Constant
Frame rate : 23.976 fps
Color space : YUV
Chroma subsampling : 4:2:0
Bit depth : 8 bits
Scan type : Progressive
Bits/(Pixel*Frame) : 0.168
Stream size : 6.85 GiB (86%)
Title : Унесенные призраками.(2001).BDRip.1080p.[envy]
Writing library : x264 core 142 r2431 ac76440
Encoding settings : cabac=1 / ref=4 / deblock=1:0:0 / analyse=0x3:0x133 / me=umh / subme=11 / psy=1 / psy_rd=1.00:0.00 / mixed_ref=1 / me_range=32 / chroma_me=1 / trellis=2 / 8x8dct=1 / cqm=0 / deadzone=21,11 / fast_pskip=0 / chroma_qp_offset=-2 / threads=12 / lookahead_threads=1 / sliced_threads=0 / nr=0 / decimate=1 / interlaced=0 / bluray_compat=0 / constrained_intra=0 / bframes=6 / b_pyramid=2 / b_adapt=2 / b_bias=0 / direct=3 / weightb=1 / open_gop=0 / weightp=2 / keyint=240 / keyint_min=23 / scenecut=40 / intra_refresh=0 / rc=2pass / mbtree=0 / bitrate=8051 / ratetol=2.0 / qcomp=0.60 / qpmin=0 / qpmax=69 / qpstep=4 / cplxblur=20.0 / qblur=0.5 / ip_ratio=1.40 / pb_ratio=1.30 / aq=2:1.00
Language : Japanese
Default : Yes
Forced : No

Audio #1
ID : 2
Format : AC-3
Format/Info : Audio Coding 3
Mode extension : CM (complete main)
Format settings, Endianness : Big
Codec ID : A_AC3
Duration : 2h 4mn
Bit rate mode : Constant
Bit rate : 448 Kbps
Channel count : 6 channels
Channel positions : Front: L C R, Side: L R, LFE
Sampling rate : 48.0 KHz
Bit depth : 16 bits
Compression mode : Lossy
Stream size : 399 MiB (5%)
Title : Dub
Language : Russian
Default : Yes
Forced : No

Audio #2
ID : 3
Format : AC-3
Format/Info : Audio Coding 3
Mode extension : CM (complete main)
Format settings, Endianness : Big
Codec ID : A_AC3
Duration : 2h 4mn
Bit rate mode : Constant
Bit rate : 640 Kbps
Channel count : 6 channels
Channel positions : Front: L C R, Side: L R, LFE
Sampling rate : 48.0 KHz
Bit depth : 16 bits
Compression mode : Lossy
Stream size : 570 MiB (7%)
Title : Jpn
Language : Japanese
Default : No
Forced : No

Text #1
ID : 4
Format : UTF-8
Codec ID : S_TEXT/UTF8
Codec ID/Info : UTF-8 Plain Text
Title : full
Language : Russian
Default : No
Forced : No

Text #2
ID : 5
Format : UTF-8
Codec ID : S_TEXT/UTF8
Codec ID/Info : UTF-8 Plain Text
Title : full
Language : English
Default : No
Forced : No

Menu
00:00:00.000 : :Chapter 01
00:01:39.098 : :Chapter 02
00:03:16.238 : :Chapter 03
00:07:23.526 : :Chapter 04
00:10:45.395 : :Chapter 05
00:17:03.022 : :Chapter 06
00:22:48.534 : :Chapter 07
00:28:36.047 : :Chapter 08
00:33:28.172 : :Chapter 09
00:38:21.674 : :Chapter 10
00:44:11.815 : :Chapter 11
00:48:26.821 : :Chapter 12
00:54:31.351 : :Chapter 13
01:02:09.017 : :Chapter 14
01:08:11.587 : :Chapter 15
01:14:36.847 : :Chapter 16
01:19:10.579 : :Chapter 17
01:25:39.760 : :Chapter 18
01:31:18.890 : :Chapter 19
01:37:33.805 : :Chapter 20
01:45:18.937 : :Chapter 21
01:50:25.118 : :Chapter 22
01:52:51.098 : :Chapter 23
01:55:14.199 : :Chapter 24
02:00:53.580 : :Chapter 25



#77

*- За исходный материал спасибо и FREEDONOR



   Похожие торренты   Торрент   Размер 
В этой теме нет новых непрочитанных сообщений. Унесённые призраками / Spirited Away / Sen to Chihiro no Kamikakushi (2001) BDRip 1080p от HDCLUB

8 | 19

21.93 ГБ

В этой теме нет новых непрочитанных сообщений. Унесённые призраками / Spirited Away / Sen to Chihiro no kamikakushi (2001) BDRip от HQCLUB

128 | 16

2.18 ГБ

В этой теме нет новых непрочитанных сообщений. Унесенные призраками / Spirited Away / Sen to Chihiro no kamikakushi (2001) BDRip от Stranik 2.0

157 | 11

1.93 ГБ

В этой теме нет новых непрочитанных сообщений. Унесенные призраками / Sen to Chihiro no kamikakushi / Spirited away (2001) DVDRip

1545 | 42

2.05 ГБ

В этой теме нет новых непрочитанных сообщений. Унесенные Призраками / Spirited Away / Sen To Chihiro No Kamikakushi (2001) HDRip от Scarabey | D

538 | 21

748.29 МБ

В этой теме нет новых непрочитанных сообщений. Унесенные призраками / Sen to Chihiro no kamikakushi / Spirited away (2001) HDTVRip by Andrjuha-bratan

20 | 7

3 ГБ

В этой теме нет новых непрочитанных сообщений. Унесённые призраками / Sen to Chihiro no kamikakushi (2001) BDRip 1080p от HQCLUB

77 | 22

21.11 ГБ




Вы не можете начинать темы
Вы не можете отвечать на сообщения
Вы не можете редактировать свои сообщения
Вы не можете удалять свои сообщения
Вы не можете добавлять вложения

Перейти:  
Для Мосгорсуда, Роскомнадзора и рекламодателей: mosgorsud-torrent[собачка]yandex.ru
 Вход
ppkBB3cker v.2 © 2008-2014 @ PPK
[ Time : 0.062s | 15 Queries | GZIP : Off ]

Торрент трекер RUTOR.IN, Не можете зайти на rutor.org? Какой новый адрес рутор? Какое зеркало рутор? Не работает rutor.org и зеркала? Тогда наш торрент специально для вас. Rutor.in неофициальное зеркало rutor. В случае если у Вас заблокирован rutor или вдруг Вы не можете на него зайти, то Вы без труда сможете скачать бесплатно и без рекламы последние новинки кино, игр, сериалов и прочего у нас, на Rutor.in. Не нужно использовать прокси, чтобы зайти на рутор, достаточно воспользоваться нашим ресурсом. Все новые фильмы, игры, сериалы, книги и музыка за 2013 и 2014 годы через торрент бесплатно. Скачивайте фильмы в хорошем качестве, игры для пк, xbox, playstation без регистрации. У нас вы найдете новые Зарубежные сериалы и Русские сериалы 2013, 2014, 2015 годов. Оставайтесь с нами, качайте любимые фильмы, игры, сериалы, книги и музыку.