img image001 image001 image001 image001 image001 image001 image001 image001 image001 image001 image001 image001 image001 image001 image001

Planets Sun Sun Sun
Статистика раздачи
Автор: Nickolas3434 | Размер: 431.77 МБ | Добавлен: 08 июл 2014
Раздают: 37    Качают: 5
Скачать торрент
Скачать торрент
Описание торрента

СообщениеДобавлено: 08 июл 2014 

Информация о фильме
Название: Прекрасный воин Сейлор Мун. Кристалл
Оригинальное название: Bishoujo Senshi Sailor Moon Crystal / 美少女戦士セーラームーン Crystal
Страна: Япония
Год выхода: 2014
Жанр: приключения, махо-сёдзё
Режиссер: Сакай Мунэхиса / Sakai Munehisa / 境宗久
Автор оригинала: Такэути Наоко / Takeuchi Naoko / 武内直子

О фильме: Усаги Цукино учится во втором классе средней школы, она далеко не самая умная, немного неуклюжая и вообще плакса, но энергии ей не занимать. В один прекрасный день Усаги встречает Луну, черную кошку с полумесяцем на лбу, после чего получает способность превращаться в Сейлор Мун – прекрасную воительницу в матроске, несущую возмездие во имя Луны (любви и справедливости). Теперь Усаги должна вместе с другими воительницами искать Иллюзорный Серебряный Кристалл, а заодно защищать принцессу. Тем временем Королева Берил, повелительница Тёмного Королевства, отправляет своих прислужников в город, где живет Усаги, дабы присвоить этот самый Кристалл, являющийся источником огромной силы.

Ремейк оригинального сериала в честь двадцатилетия марки.


Студия:

Продолжительность: ONA (26 эп.), 25 мин.
Перевод: Любительский (двухголосый)
Озвучка: loster01 & Emeri
Субтитры: отсутствуют
Хардсаб: отсутствует
Перевод на русский: Emeri

Файл
Качество: WEBRip
Формат: MP4
Видео: 1280 x 720 (16:9) at 29.970 fps, AVC (x264), High@L3.0, 2354 Kbps avg, 0.085 bit/pixel, 8 bit
Аудио: 44.1 kHz, AAC, 2 ch, 128 kbps avg
Релиз от:

Общее
Полное имя : [LE-Production]_Sailor_Moon_Crystal_[rus]_[1280x720_x264]_[loster01&Emeri][LE-Production]_Sailor_Moon_Crystal_[01]_[rus]_[1280x720_x264]_[loster01&Emeri].mp4
Формат : MPEG-4
Профиль формата : Base Media
Идентификатор кодека : isom
Размер файла : 432 Мбайт
Продолжительность : 24 м.
Общий поток : 2486 Кбит/сек
Дата кодирования : UTC 2014-07-04 18:52:19
Дата пометки : UTC 2014-07-04 18:52:19
Программа кодирования : Yamb 2.1.0.0 [http://yamb.unite-video.com]

Видео
Идентификатор : 1
Формат : AVC
Формат/Информация : Advanced Video Codec
Профиль формата : High@L3.0
Параметр CABAC формата : Да
Параметр ReFrames формата : 4 кадры
Идентификатор кодека : avc1
Идентификатор кодека/Информация : Advanced Video Coding
Продолжительность : 24 м.
Вид битрейта : Переменный
Битрейт : 2354 Кбит/сек
Максимальный битрейт : 20,5 Мбит/сек
Ширина : 1280 пикс.
Высота : 720 пикс.
Соотношение сторон : 16:9
Режим частоты кадров : Постоянный
Частота кадров : 29,970 кадр/сек
Цветовое пространство : YUV
Подвыборка цветности : 4:2:0
Битовая глубина : 8 бит
Тип развёртки : Прогрессивная
Бит/(Пиксели*Кадры) : 0.085
Размер потока : 409 Мбайт (95%)
Библиотека кодирования : x264 core 130 r2273 b3065e6
Настройки программы : cabac=1 / ref=1 / deblock=1:0:0 / analyse=0x3:0x3 / me=dia / subme=1 / psy=1 / psy_rd=1.00:0.00 / mixed_ref=0 / me_range=16 / chroma_me=1 / trellis=0 / 8x8dct=1 / cqm=0 / deadzone=21,11 / fast_pskip=1 / chroma_qp_offset=0 / threads=12 / lookahead_threads=2 / sliced_threads=0 / nr=0 / decimate=1 / interlaced=0 / bluray_compat=0 / constrained_intra=0 / bframes=3 / b_pyramid=2 / b_adapt=1 / b_bias=0 / direct=1 / weightb=1 / open_gop=0 / weightp=1 / keyint=250 / keyint_min=25 / scenecut=40 / intra_refresh=0 / rc=crf / mbtree=0 / crf=21.0 / qcomp=0.60 / qpmin=0 / qpmax=69 / qpstep=4 / ip_ratio=1.40 / pb_ratio=1.30 / aq=1:1.00
Дата кодирования : UTC 2014-07-04 15:43:04
Дата пометки : UTC 2014-07-04 18:52:23

Аудио
Идентификатор : 2
Формат : AAC
Формат/Информация : Advanced Audio Codec
Профиль формата : LC
Идентификатор кодека : 40
Продолжительность : 24 м.
Вид битрейта : Переменный
Битрейт : 128 Кбит/сек
Максимальный битрейт : 133 Кбит/сек
Канал(ы) : 2 канала(ов)
Расположение каналов : Front: L R
Частота : 44,1 КГц
Метод сжатия : С потерями
Размер потока : 22,2 Мбайт (5%)
Язык : English
Дата кодирования : UTC 2014-07-04 18:52:22
Дата пометки : UTC 2014-07-04 18:52:23

01. Усаги превращается в Сейлор Мун.





   Похожие торренты   Торрент   Размер 
В этой теме нет новых непрочитанных сообщений. Прекрасный воин Сейлор Мун. Кристалл / Bishoujo Senshi Sailor Moon Crystal [ONA] [01-06 из 26] (2014) WEBRip 720p | LE-Production

38 | 25

2.58 ГБ

В этой теме нет новых непрочитанных сообщений. Прекрасный воин Сейлор Мун. Кристалл / Bishoujo Senshi Sailor Moon Crystal [ONA] [01-02 из 26] (2014) WEBRip 720p | LE-Production

24 | 8

868.91 МБ

В этой теме нет новых непрочитанных сообщений. Прекрасный воин Сейлор Мун. Кристалл / Bishoujo Senshi Sailor Moon Crystal [ONA] [01-03 из 26] (2014) WEBRip 720p | LE-Production

49 | 20

1.29 ГБ

В этой теме нет новых непрочитанных сообщений. Прекрасный воин Сейлор Мун. Кристалл / Bishoujo Senshi Sailor Moon Crystal [ONA] [01-05 из 26] (2014) WEBRip 720p | LE-Production

25 | 12

2.19 ГБ

В этой теме нет новых непрочитанных сообщений. Прекрасный воин Сейлор Мун. Кристалл / Bishoujo Senshi Sailor Moon Crystal [ONA] [01-10 из 26] (2014) WEBRip 720p | LE-Production

13 | 5

4.27 ГБ

В этой теме нет новых непрочитанных сообщений. Прекрасный воин Сейлор Мун. Кристалл / Bishoujo Senshi Sailor Moon Crystal [ONA] [01-11 из 26] (2014) WEBRip 720p | LE-Production

25 | 13

4.83 ГБ

В этой теме нет новых непрочитанных сообщений. Прекрасный воин Сейлор Мун. Кристалл / Bishoujo Senshi Sailor Moon Crystal [ONA] [01-16 из 26] (2014) WEBRip 720p | LE-Production

13 | 5

7.51 ГБ




Вы не можете начинать темы
Вы не можете отвечать на сообщения
Вы не можете редактировать свои сообщения
Вы не можете удалять свои сообщения
Вы не можете добавлять вложения

Перейти:  
Для Мосгорсуда, Роскомнадзора и рекламодателей: mosgorsud-torrent[собачка]yandex.ru
 Вход
ppkBB3cker v.2 © 2008-2014 @ PPK
[ Time : 0.036s | 15 Queries | GZIP : Off ]

Торрент трекер RUTOR.IN, Не можете зайти на rutor.org? Какой новый адрес рутор? Какое зеркало рутор? Не работает rutor.org и зеркала? Тогда наш торрент специально для вас. Rutor.in неофициальное зеркало rutor. В случае если у Вас заблокирован rutor или вдруг Вы не можете на него зайти, то Вы без труда сможете скачать бесплатно и без рекламы последние новинки кино, игр, сериалов и прочего у нас, на Rutor.in. Не нужно использовать прокси, чтобы зайти на рутор, достаточно воспользоваться нашим ресурсом. Все новые фильмы, игры, сериалы, книги и музыка за 2013 и 2014 годы через торрент бесплатно. Скачивайте фильмы в хорошем качестве, игры для пк, xbox, playstation без регистрации. У нас вы найдете новые Зарубежные сериалы и Русские сериалы 2013, 2014, 2015 годов. Оставайтесь с нами, качайте любимые фильмы, игры, сериалы, книги и музыку.