img image001 image001 image001 image001 image001 image001 image001 image001 image001 image001 image001 image001 image001 image001 image001

Planets Sun Sun Sun
Статистика раздачи
Автор: Nickolas3434 | Размер: 5.75 ГБ | Добавлен: 14 июл 2014
Раздают: 1844    Качают: 43
Скачать торрент
Скачать торрент
Описание торрента

СообщениеДобавлено: 14 июл 2014 


#77
Информация о фильме
    Русское название: Сказания Земноморья
    Оригинальное название: Tales from Earthsea
    Год выхода: 2006
    Жанр: Аниме, мультфильм, фэнтези, приключения
    Режиссер: Горо Миядзаки
    Выпущено: Япония
    Продолжительность: 01:55:32
    Перевод: Дублированный
    Роли озвучивали: Джуничи Окада, Аой Тешима, Бунта Сугавара, Юко Танака, Теруюки Кагава, Джан Фубуки, Такаши Найто, Мицуко Байсё, Юи Нацукава, Каору Кобаяши


Сюжет фильма
    Горы, пещеры и замки сказочной страны, драконы и амулеты, заклинания и пророчества, маги и принцы, жрицы и убийцы, злодеи и праведники - в новой приключенческой анимационной фэнтази-саге о волшебном мире Земноморья.
    Земноморье в опасности, мир волшебства на грани исчезновения. Вселенское равновесие нарушено: драконы, обитающие в западном пределе сказочной страны, неожиданно появляются на востоке во владениях людей. Верховный маг Гед отправляется на поиски первопричины беды. В пути он встречает Аррена, принца Энлада, который после свершения страшного греха, убийства отца, бежит из родного края, преследуемый тенью.
    Прибыв в столицу Земноморья Норт Таун, путники находят пристанище в доме Белой Дамы, бывшей жрицы-хранительницы темных Гробниц Атуана. Верховный Маг Гед открывает Аррену тайны жизни и смерти, правды и лжи. Призывая служить истине с полной самоотдачей, он словно передает эстафету дерзновенному юноше, которому предначертана особая миссия в этом мире. Но успеют ли они противостать силам зла? Или уже слишком поздно...


Файл
    Качество: BDRip 1080p (исходник Blu-ray Disc Remux)
    Видео: 1920x1036, 6237 Кбит/сек, 23,976 кадр/сек, AVC, x264, High@L4.1, 1.85:1, 0.131 Бит/[Пиксели*Кадры]
    Аудио 1: AC-3, 448 Кбит/сек, 6 канала(ов), 48,0 КГц - Дублированный / Русский
    Аудио 2: AC-3, 448 Кбит/сек, 6 канала(ов), 48,0 КГц - Оригинал / Японский
    Субтитры: Русские | Полные, Английские | Полные
    Форсированные субтитры: Нет
    Чаптеры (Главы): Есть



Автор Рипа: Сообщество:



Format : Matroska
Format version : Version 2
File size : 5.75 GiB
Duration : 1h 55mn
Overall bit rate : 7 130 Kbps
Movie name : Сказания Земноморья.(2006).BDRip.1080p.[envy]
Encoded date : UTC 2014-07-11 15:38:30
Writing application : mkvmerge v5.8.0 ('No Sleep / Pillow') built on Sep 2 2012 15:37:04
Writing library : libebml v1.2.3 + libmatroska v1.3.0

Video
ID : 1
Format : AVC
Format/Info : Advanced Video Codec
Format profile : High@L4.1
Format settings, CABAC : Yes
Format settings, ReFrames : 4 frames
Codec ID : V_MPEG4/ISO/AVC
Duration : 1h 55mn
Bit rate : 6 237 Kbps
Width : 1 920 pixels
Height : 1 036 pixels
Display aspect ratio : 1.85:1
Frame rate mode : Constant
Frame rate : 23.976 fps
Color space : YUV
Chroma subsampling : 4:2:0
Bit depth : 8 bits
Scan type : Progressive
Bits/(Pixel*Frame) : 0.131
Stream size : 4.92 GiB (85%)
Title : Сказания Земноморья.(2006).BDRip.1080p.[envy]
Writing library : x264 core 142 r2431 ac76440
Encoding settings : cabac=1 / ref=4 / deblock=1:0:0 / analyse=0x3:0x113 / me=umh / subme=11 / psy=1 / psy_rd=1.00:0.00 / mixed_ref=1 / me_range=32 / chroma_me=1 / trellis=2 / 8x8dct=1 / cqm=0 / deadzone=21,11 / fast_pskip=0 / chroma_qp_offset=-2 / threads=12 / lookahead_threads=2 / sliced_threads=0 / nr=0 / decimate=1 / interlaced=0 / bluray_compat=0 / constrained_intra=0 / bframes=7 / b_pyramid=2 / b_adapt=2 / b_bias=0 / direct=3 / weightb=1 / open_gop=0 / weightp=2 / keyint=240 / keyint_min=23 / scenecut=40 / intra_refresh=0 / rc=2pass / mbtree=0 / bitrate=6237 / ratetol=2.0 / qcomp=0.60 / qpmin=0 / qpmax=69 / qpstep=4 / cplxblur=20.0 / qblur=0.5 / ip_ratio=1.40 / pb_ratio=1.30 / aq=2:1.00
Language : Japanese
Default : Yes
Forced : No

Audio #1
ID : 2
Format : AC-3
Format/Info : Audio Coding 3
Mode extension : CM (complete main)
Format settings, Endianness : Big
Codec ID : A_AC3
Duration : 1h 55mn
Bit rate mode : Constant
Bit rate : 448 Kbps
Channel count : 6 channels
Channel positions : Front: L C R, Side: L R, LFE
Sampling rate : 48.0 KHz
Bit depth : 16 bits
Compression mode : Lossy
Stream size : 370 MiB (6%)
Title : Dub
Language : Russian
Default : Yes
Forced : No

Audio #2
ID : 3
Format : AC-3
Format/Info : Audio Coding 3
Mode extension : CM (complete main)
Format settings, Endianness : Big
Codec ID : A_AC3
Duration : 1h 55mn
Bit rate mode : Constant
Bit rate : 448 Kbps
Channel count : 6 channels
Channel positions : Front: L C R, Side: L R, LFE
Sampling rate : 48.0 KHz
Bit depth : 16 bits
Compression mode : Lossy
Stream size : 370 MiB (6%)
Title : Jpn
Language : Japanese
Default : No
Forced : No

Text #1
ID : 4
Format : UTF-8
Codec ID : S_TEXT/UTF8
Codec ID/Info : UTF-8 Plain Text
Title : full
Language : Russian
Default : No
Forced : No

Text #2
ID : 5
Format : UTF-8
Codec ID : S_TEXT/UTF8
Codec ID/Info : UTF-8 Plain Text
Title : full
Language : English
Default : No
Forced : No

Menu
00:00:00.000 : en:00:00:00.000
00:06:50.035 : en:00:06:50.035
00:10:15.031 : en:00:10:15.031
00:15:42.567 : en:00:15:42.567
00:20:11.877 : en:00:20:11.877
00:25:22.771 : en:00:25:22.771
00:27:57.384 : en:00:27:57.384
00:31:59.626 : en:00:31:59.626
00:38:54.082 : en:00:38:54.082
00:43:36.822 : en:00:43:36.822
00:46:35.000 : en:00:46:35.000
00:51:17.533 : en:00:51:17.533
00:55:24.363 : en:00:55:24.363
01:04:00.545 : en:01:04:00.545
01:10:13.125 : en:01:10:13.125
01:16:05.811 : en:01:16:05.811
01:19:41.318 : en:01:19:41.318
01:22:15.681 : en:01:22:15.681
01:26:06.828 : en:01:26:06.828
01:29:37.372 : en:01:29:37.372
01:35:41.861 : en:01:35:41.861
01:40:59.387 : en:01:40:59.387
01:44:21.547 : en:01:44:21.547
01:49:08.834 : en:01:49:08.834



#77



   Похожие торренты   Торрент   Размер 
В этой теме нет новых непрочитанных сообщений. Сказания Земноморья / Gedo Senki - Tales from Earthsea (2006) BDRip 720p от HELLYWOOD | D

108 | 13

4.37 ГБ

В этой теме нет новых непрочитанных сообщений. Сказания Земноморья / Tales from Earthsea / Gedo Senki (2006) HDRip-AVC [480p] | iPhone | D,P2

135 | 17

1.28 ГБ

В этой теме нет новых непрочитанных сообщений. Волшебник Земноморья / Earthsea (2004) DVDRip

159 | 13

1.46 ГБ

В этой теме нет новых непрочитанных сообщений. Волшебник Земноморья / Earthsea (2004) DVDRip | КПК от Generalfilm

34 | 4

744.43 МБ

В этой теме нет новых непрочитанных сообщений. Тор: Сказания Асгарда / Thor: Tales of Asgard (2011) BDRip 1080p

1 | 3

4.6 ГБ

В этой теме нет новых непрочитанных сообщений. Тор: Сказания Асгарда / Thor: Tales of Asgard (2011) BDRip-AVC от potroks | P

6 | 6

1.45 ГБ

В этой теме нет новых непрочитанных сообщений. Тор: Сказания Асгарда / Thor: Tales of Asgard (2011) BDRip от HQCLUB

4 | 6

1.45 ГБ




Вы не можете начинать темы
Вы не можете отвечать на сообщения
Вы не можете редактировать свои сообщения
Вы не можете удалять свои сообщения
Вы не можете добавлять вложения

Перейти:  
Для Мосгорсуда, Роскомнадзора и рекламодателей: mosgorsud-torrent[собачка]yandex.ru
 Вход
ppkBB3cker v.2 © 2008-2014 @ PPK
[ Time : 0.021s | 15 Queries | GZIP : Off ]
CGP output time : 0.094s | 5 Queries | GZIP : Off

Торрент трекер RUTOR.IN, Не можете зайти на rutor.org? Какой новый адрес рутор? Какое зеркало рутор? Не работает rutor.org и зеркала? Тогда наш торрент специально для вас. Rutor.in неофициальное зеркало rutor. В случае если у Вас заблокирован rutor или вдруг Вы не можете на него зайти, то Вы без труда сможете скачать бесплатно и без рекламы последние новинки кино, игр, сериалов и прочего у нас, на Rutor.in. Не нужно использовать прокси, чтобы зайти на рутор, достаточно воспользоваться нашим ресурсом. Все новые фильмы, игры, сериалы, книги и музыка за 2013 и 2014 годы через торрент бесплатно. Скачивайте фильмы в хорошем качестве, игры для пк, xbox, playstation без регистрации. У нас вы найдете новые Зарубежные сериалы и Русские сериалы 2013, 2014, 2015 годов. Оставайтесь с нами, качайте любимые фильмы, игры, сериалы, книги и музыку.