img image001 image001 image001 image001 image001 image001 image001 image001 image001 image001 image001 image001 image001 image001 image001

Planets Sun Sun Sun
Статистика раздачи
Автор: Nickolas3434 | Размер: 508.12 МБ | Добавлен: 13 июл 2014
Раздают: 21    Качают: 6
Скачать торрент
Скачать торрент
Описание торрента

СообщениеДобавлено: 13 июл 2014 

Информация о фильме
Название: Эхо Террора
Оригинальное название: Zankyou no Terror / Terror in Resonance / 残響のテロル
Страна: Япония
Год выхода: 2014
Жанр: приключения
Режиссер: Ватанабэ Синъитиро / Watanabe Shinichiro / 渡辺信一郎
Автор оригинала: Ватанабэ Синъитиро / Watanabe Shinichiro / 渡辺信一郎

О фильме: В один из летних деньков Токио содрогается от крупного террористического акта. За этим стоит некая организация "Сфинкс", появившаяся буквально из ниоткуда. Вот только состоит эта организация всего из двух школьников, Шина Коконоэ «Девять» и Фуюджи Куми «Двенадцать», а также неожиданно присоединившейся к ним Рисы Мишимы. Пока все ищут злодея, эта троица делает первый ход в игре, частью которой стало все население Японии. «В этом мире необходимо уметь нажать на курок» – с этим девизом и начинается грандиозная «игра».

Студия:

Продолжительность: ТВ (>11 эп.), 25 мин.
Перевод: Любительский (двухголосый)
Озвучка: loster01 & Emeri
Субтитры: отсутствуют
Хардсаб: отсутствует
Перевод на русский: [Алекс Миф и Воздух]

Файл
Качество: HDTVRip [Leopard-Raws]
Формат: MP4
Видео: 1280 x 720 (16:9) at 23.976 fps, AVC (x264), High@L3.0, 2814 Kbps avg, 0.127 bit/pixel, 8 bit
Аудио: 48.0 kHz, AAC, 2 ch, 256 kbps avg

Релиз от:

Общее
Полное имя : [LE-Production]_Zankyou_no_Terror_[rus]_[1280x720_x264]_[loster01_&_Emeri][LE-Production]_Zankyou_no_Terror_[01]_[rus]_[1280x720_x264]_[loster01_&_Emeri].mp4
Формат : MPEG-4
Профиль формата : Base Media
Идентификатор кодека : isom
Размер файла : 508 Мбайт
Продолжительность : 23 м.
Общий поток : 3074 Кбит/сек
Дата кодирования : UTC 2014-07-11 11:45:47
Дата пометки : UTC 2014-07-11 11:45:47
Программа кодирования : Yamb 2.1.0.0 [http://yamb.unite-video.com]

Видео
Идентификатор : 1
Формат : AVC
Формат/Информация : Advanced Video Codec
Профиль формата : High@L3.0
Параметр CABAC формата : Да
Параметр ReFrames формата : 4 кадры
Идентификатор кодека : avc1
Идентификатор кодека/Информация : Advanced Video Coding
Продолжительность : 23 м.
Вид битрейта : Переменный
Битрейт : 2814 Кбит/сек
Максимальный битрейт : 18,0 Мбит/сек
Ширина : 1280 пикс.
Высота : 720 пикс.
Соотношение сторон : 16:9
Режим частоты кадров : Постоянный
Частота кадров : 23,976 кадр/сек
Цветовое пространство : YUV
Подвыборка цветности : 4:2:0
Битовая глубина : 8 бит
Тип развёртки : Прогрессивная
Бит/(Пиксели*Кадры) : 0.127
Размер потока : 465 Мбайт (92%)
Библиотека кодирования : x264 core 130 r2273 b3065e6
Настройки программы : cabac=1 / ref=1 / deblock=1:0:0 / analyse=0x3:0x3 / me=dia / subme=1 / psy=1 / psy_rd=1.00:0.00 / mixed_ref=0 / me_range=16 / chroma_me=1 / trellis=0 / 8x8dct=1 / cqm=0 / deadzone=21,11 / fast_pskip=1 / chroma_qp_offset=0 / threads=12 / lookahead_threads=2 / sliced_threads=0 / nr=0 / decimate=1 / interlaced=0 / bluray_compat=0 / constrained_intra=0 / bframes=3 / b_pyramid=2 / b_adapt=1 / b_bias=0 / direct=1 / weightb=1 / open_gop=0 / weightp=1 / keyint=250 / keyint_min=23 / scenecut=40 / intra_refresh=0 / rc=crf / mbtree=0 / crf=21.0 / qcomp=0.60 / qpmin=0 / qpmax=69 / qpstep=4 / ip_ratio=1.40 / pb_ratio=1.30 / aq=1:1.00
Дата кодирования : UTC 2014-07-11 11:44:41
Дата пометки : UTC 2014-07-11 11:45:50

Аудио
Идентификатор : 2
Формат : AAC
Формат/Информация : Advanced Audio Codec
Профиль формата : LC
Идентификатор кодека : 40
Продолжительность : 23 м.
Вид битрейта : Переменный
Битрейт : 256 Кбит/сек
Максимальный битрейт : 262 Кбит/сек
Канал(ы) : 2 канала(ов)
Расположение каналов : Front: L R
Частота : 48,0 КГц
Метод сжатия : С потерями
Размер потока : 42,3 Мбайт (8%)
Язык : Russian
Дата кодирования : UTC 2014-07-11 11:45:49
Дата пометки : UTC 2014-07-11 11:45:50

01. Falling





   Похожие торренты   Торрент   Размер 
В этой теме нет новых непрочитанных сообщений. Эхо Террора / Zankyou no Terror / Terror in Resonance [TV] [01-02 из 11] (2014) HDTVRip 720p | LE-Production

36 | 7

962.29 МБ

В этой теме нет новых непрочитанных сообщений. Эхо Террора / Zankyou no Terror / Terror in Resonance [01-06 из 11] (2014) HDTVRip 720p | L1

14 | 9

2.27 ГБ

В этой теме нет новых непрочитанных сообщений. Эхо Террора / Zankyou no Terror / Terror in Resonance [01-09 из 11] (2014) HDTVRip 720p | L1

11 | 11

3.46 ГБ

В этой теме нет новых непрочитанных сообщений. Эхо Террора / Zankyou no Terror / Terror in Resonance [01-05 из 11] (2014) HDTVRip 720p | L1

15 | 26

1.9 ГБ

В этой теме нет новых непрочитанных сообщений. Эхо Террора / Zankyou no Terror / Terror in Resonance [01-11 из 11] (2014) HDTVRip 720p | L1

389 | 53

4.19 ГБ

В этой теме нет новых непрочитанных сообщений. Эхо Террора / Zankyou no Terror [01-03 из 11] (2014) HDTVRip 720p | AniDub

17 | 13

1.13 ГБ

В этой теме нет новых непрочитанных сообщений. Эхо Террора / Zankyou no Terror [01-03 из 11] (2014) HDTVRip 720p | AniMedia

2 | 11

1.2 ГБ




Вы не можете начинать темы
Вы не можете отвечать на сообщения
Вы не можете редактировать свои сообщения
Вы не можете удалять свои сообщения
Вы не можете добавлять вложения

Перейти:  
Для Мосгорсуда, Роскомнадзора и рекламодателей: mosgorsud-torrent[собачка]yandex.ru
 Вход
ppkBB3cker v.2 © 2008-2014 @ PPK
[ Time : 0.024s | 15 Queries | GZIP : On ]

Торрент трекер RUTOR.IN, Не можете зайти на rutor.org? Какой новый адрес рутор? Какое зеркало рутор? Не работает rutor.org и зеркала? Тогда наш торрент специально для вас. Rutor.in неофициальное зеркало rutor. В случае если у Вас заблокирован rutor или вдруг Вы не можете на него зайти, то Вы без труда сможете скачать бесплатно и без рекламы последние новинки кино, игр, сериалов и прочего у нас, на Rutor.in. Не нужно использовать прокси, чтобы зайти на рутор, достаточно воспользоваться нашим ресурсом. Все новые фильмы, игры, сериалы, книги и музыка за 2013 и 2014 годы через торрент бесплатно. Скачивайте фильмы в хорошем качестве, игры для пк, xbox, playstation без регистрации. У нас вы найдете новые Зарубежные сериалы и Русские сериалы 2013, 2014, 2015 годов. Оставайтесь с нами, качайте любимые фильмы, игры, сериалы, книги и музыку.