img image001 image001 image001 image001 image001 image001 image001 image001 image001 image001 image001 image001 image001 image001 image001

Planets Sun Sun Sun
Статистика раздачи
Автор: Nickolas3434 | Размер: 1.04 ГБ | Добавлен: 13 июл 2014
Раздают: 13    Качают: 9
Скачать торрент
Скачать торрент
Описание торрента

СообщениеДобавлено: 13 июл 2014 

Информация о фильме
Название: Стёклышко
Оригинальное название: Glasslip
Год выхода: 2014
Жанр: Романтика, повседневность
Режиссер: Нисимура Дзюндзи
Сценарий: Сато Рика

Об аниме:
История расскажет о шести школьниках, встретившихся однажды летом. Главная героиня, Токо Фуками, девушка семнадцати лет от роду, мечтает стать стеклодувом. Сможет ли она воплотить свою мечту, мы и будем выяснять на протяжении аниме.
Страна: Япония
Студия:
Продолжительность: ТВ (>12 эп.), 25 мин.
Перевод: Многоголосый закадровый
Озвучивание: Sati Akura, Sonata, Rise, Ray.
Работа над звуком Castle.
Перевели: YakuSub Studio
Релиз от: Ani-Mania

Файл
Качество: HDTVRip 720p
Формат: mp4
Видео: 1280 x 720 (16:9) at 23.976 fps, AVC (x264), Main@L4.1, 2 428 Kbps avg, 0.110 bit/pixel, 8 bit
Звук: 48.0 kHz, AAC, 2 ch, 192 kbps avg
Субтитры: отсутствуют
General
Complete name : F:Shara[Ani-Mania]_Glasslip_[1280x720_x264]_[MVO][Ani-Mania]_Glasslip_[01]_[rus]_[1280x720_x264]_[MVO].mp4
Format : MPEG-4
Format profile : Base Media
Codec ID : isom
File size : 447 MiB
Duration : 23mn 50s
Overall bit rate mode : Variable
Overall bit rate : 2 623 Kbps
Encoded date : UTC 2014-07-05 17:48:58
Tagged date : UTC 2014-07-05 17:48:58
Writing application : Yamb 2.1.0.0 [http://yamb.unite-video.com]

Video
ID : 1
Format : AVC
Format/Info : Advanced Video Codec
Format profile : Main@L4.1
Format settings, CABAC : Yes
Format settings, ReFrames : 3 frames
Codec ID : avc1
Codec ID/Info : Advanced Video Coding
Duration : 23mn 50s
Bit rate mode : Variable
Bit rate : 2 428 Kbps
Maximum bit rate : 50.0 Mbps
Width : 1 280 pixels
Height : 720 pixels
Display aspect ratio : 16:9
Frame rate mode : Constant
Frame rate : 23.976 fps
Standard : NTSC
Color space : YUV
Chroma subsampling : 4:2:0
Bit depth : 8 bits
Scan type : Progressive
Bits/(Pixel*Frame) : 0.110
Stream size : 414 MiB (93%)
Language : English
Encoded date : UTC 2014-07-04 16:56:41
Tagged date : UTC 2014-07-05 17:49:01

Audio
ID : 2
Format : AAC
Format/Info : Advanced Audio Codec
Format profile : LC
Codec ID : 40
Duration : 23mn 50s
Bit rate mode : Variable
Bit rate : 192 Kbps
Maximum bit rate : 201 Kbps
Channel count : 2 channels
Channel positions : Front: L R
Sampling rate : 48.0 KHz
Compression mode : Lossy
Stream size : 32.8 MiB (7%)
Language : English
Encoded date : UTC 2014-07-05 17:49:00
Tagged date : UTC 2014-07-05 17:49:01

01. Фейерверки
02. Скамья





   Похожие торренты   Торрент   Размер 
В этой теме нет новых непрочитанных сообщений. Стёклышко / Glasslip TV [01 из 12] (2014) 720p (2014) HDTVRip 720p | Ani-Mania

16 | 2

447.29 МБ

В этой теме нет новых непрочитанных сообщений. По ту сторону стекла (Стёклышко) / Glasslip [01-13 из 13] (2014) HDTVRip 720p от Anilibria | L2

54 | 39

4.52 ГБ

В этой теме нет новых непрочитанных сообщений. По Ту Сторону Стекла / Glasslip [01-06 из 12] (2014) HDTVRip 720p от Animedia | L

4 | 7

2.47 ГБ

В этой теме нет новых непрочитанных сообщений. По Ту Сторону Стекла / Glasslip [01-05 из 12] (2014) HDTVRip 720p от Animedia | L

1 | 3

2.11 ГБ

В этой теме нет новых непрочитанных сообщений. Деревня ангелов / Ängelby [S01x01-04 из 12] (2015) HDTVRip 720p | Project Web Mania

22 | 0

2.29 ГБ

В этой теме нет новых непрочитанных сообщений. Деревня ангелов / Ängelby [S01x01-08 из 12] (2015) HDTVRip 720p | Project Web Mania

28 | 11

4.55 ГБ

В этой теме нет новых непрочитанных сообщений. Деревня ангелов / Ängelby [S01x01-09 из 12] (2015) HDTVRip 720p | L2 | Project Web Mania

0 | 0

5.11 ГБ




Вы не можете начинать темы
Вы не можете отвечать на сообщения
Вы не можете редактировать свои сообщения
Вы не можете удалять свои сообщения
Вы не можете добавлять вложения

Перейти:  
Для Мосгорсуда, Роскомнадзора и рекламодателей: mosgorsud-torrent[собачка]yandex.ru
 Вход
ppkBB3cker v.2 © 2008-2014 @ PPK
[ Time : 0.046s | 15 Queries | GZIP : Off ]

Торрент трекер RUTOR.IN, Не можете зайти на rutor.org? Какой новый адрес рутор? Какое зеркало рутор? Не работает rutor.org и зеркала? Тогда наш торрент специально для вас. Rutor.in неофициальное зеркало rutor. В случае если у Вас заблокирован rutor или вдруг Вы не можете на него зайти, то Вы без труда сможете скачать бесплатно и без рекламы последние новинки кино, игр, сериалов и прочего у нас, на Rutor.in. Не нужно использовать прокси, чтобы зайти на рутор, достаточно воспользоваться нашим ресурсом. Все новые фильмы, игры, сериалы, книги и музыка за 2013 и 2014 годы через торрент бесплатно. Скачивайте фильмы в хорошем качестве, игры для пк, xbox, playstation без регистрации. У нас вы найдете новые Зарубежные сериалы и Русские сериалы 2013, 2014, 2015 годов. Оставайтесь с нами, качайте любимые фильмы, игры, сериалы, книги и музыку.