img image001 image001 image001 image001 image001 image001 image001 image001 image001 image001 image001 image001 image001 image001 image001

Planets Sun Sun Sun
Статистика раздачи
Автор: Nickolas3434 | Размер: 6.7 ГБ | Добавлен: 15 июл 2014
Раздают: 21    Качают: 27
Скачать торрент
Скачать торрент
Описание торрента

СообщениеДобавлено: 15 июл 2014 

Страна: Япония
Год выпуска: 2013 г.
Жанр: приключения
Тип: TV
Продолжительность: ТВ (24 эп.), 25 мин.
Режиссер: Нагай Тацуюки
Студия: J.C.STAFf

Описание:
Второй сезон спин-оффа к экранизации популярного ранобе To Aru Majutsu no Index.
Действие происходит в Академ-городке - городе, 80% которого составляют ученики различных школ. Все они - эсперы, то есть владеют различными экстрасенсорными способностями. Цель существования этого города - развивать и изучать способности эсперов.
Мы снова встречаем одну из сильнейших эсперов - Мисаку Микото, её подругу Шираи Куроко, которая испытывает к первой отнюдь не просто дружеские чувства, а также Сатэн Руико и Уихару Кадзари - не очень сильных эсперов, но отличных подруг, всегда готовых прийти на помощь.

В новом сезоне будет полнее раскрыта история "сестёр" Мисаки, которых, если вы помните, специально клонировали, чтобы Акселератор - сильнейший эспер Академ-городка, - смог получить доселе недостижимый 6-ой уровень, убивая несчастных клонов.

Доп. информация:

Релиз GSGroup

Эта серия состоит из:
#1 Индекс Волшебства [ТВ-1] - ТВ (24 эп.), адаптация ранобэ, 2008
#2 Индекс Волшебства [ТВ-2] - ТВ (24 эп.), продолжение, 2010
#3 Индекс Волшебства (фильм) - п/ф, адаптация ранобэ, 2013
#4 Некий научный Рейлган [ТВ-1] - ТВ (24 эп. + 3 спэшла), spinoff (ответвление сюжета), 2009
#5 Некий научный Рейлган OVA - OVA (1 эп.), продолжение, 2010
#6 Некий научный Рейлган [ТВ-2] - ТВ (24 эп.), продолжение, 2013
Качество: HDTVRip
Тип релиза: Без хардсаба
Формат видео: AVI
Видео: XviD, 704x396, 23,976 кадр/сек, 1280 Кбит/сек 8 бит
Аудио 1: AC-3, 48,0 КГц, 192 Кбит/сек, 2 канала Язык Русский (в составе контейнера) ; Озвучка: Persona99
Аудио 2: AC-3, 48,0 КГц, 192 Кбит/сек, 2 канала Язык Японский ; Озвучка 2: оригинал
Субтитры: внешние Язык субтитров русский ; Перевод: Brauny74 [Rinne-subs]
Редактор/Перевод песен/Оформление: hoshizora [Rinne-subs]

Список эпизодов:
01. Railgun
02. Critical
03. Project Radio Noise
04. Sisters
05. Project Level 6 Shift
06. I... Can See All of You
07. I... I Want to Be of Help to You, Sissy
08. Item
09. AIM Stalker
10. Meltdowner
11. The Vending Machine
12. Tree Diagram
13. Accelerator
14. The Promise
15. Kamijo Toma
16. Sisterhood
17. Study Group
18. Moving
19. Academic Reach Assembly
20. Febri
21. Darkness
22. Study
23. Silent Party
24. Eternal Party

Sp1. Much More Railgun IIII
Sp2. Much More Railgun IV

Код:
Общее
Полное имя                               : Toaru Kagaku no Railgun S 01_Toaru Kagaku no Railgun S_[Persona99][704x396.XviD].rus.jap.avi
Формат                                   : AVI
Формат/Информация                        : Audio Video Interleave
Размер файла                             : 288 Мбайт
Продолжительность                        : 24 м.
Общий поток                              : 1678 Кбит/сек
Программа кодирования                    : VirtualDubMod 1.5.10.2 (build 2540/release)
Библиотека кодирования                   : VirtualDubMod build 2540/release

Видео
Идентификатор                            : 0
Формат                                   : MPEG-4 Visual
Профиль формата                          : Advanced Simple@L5
Параметр BVOP формата                    : 2
Параметр QPel формата                    : Нет
Параметр GMC формата                     : Без точки перехода
Параметр матрицы формата                 : Default (H.263)
Идентификатор кодека                     : XVID
Идентификатор кодека/Подсказка           : XviD
Продолжительность                        : 24 м.
Битрейт                                  : 1280 Кбит/сек
Ширина                                   : 704 пикселя
Высота                                   : 396 пикселей
Соотношение сторон                       : 16:9
Частота кадров                           : 23,976 кадра/сек
Цветовое пространство                    : YUV
Субдискретизация насыщенности            : 4:2:0
Битовая глубина                          : 8 бит
Тип развёртки                            : Прогрессивная
Метод сжатия                             : С потерями
Бит/(Пиксели*Кадры)                      : 0.191
Размер потока                            : 220 Мбайт (76%)
Библиотека кодирования                   : XviD 1.2.1 (UTC 2008-12-04)

Аудио #1
Идентификатор                            : 1
Формат                                   : AC-3
Формат/Информация                        : Audio Coding 3
Расширение режима                        : CM (complete main)
Параметр Endianness формата              : Big
Идентификатор кодека                     : 2000
Продолжительность                        : 24 м.
Вид битрейта                             : Постоянный
Битрейт                                  : 192 Кбит/сек
Каналы                                   : 2 канала
Расположение каналов                     : Front: L R
Частота                                  : 48,0 КГц
Битовая глубина                          : 16 бит
Метод сжатия                             : С потерями
Размер потока                            : 33,0 Мбайт (11%)
Выравнивание                             : Разделение по промежуткам
Продолжительность промежутка             : 42  мс. (1,00 видеокадр)
Время предзагрузки промежутка            : 500  мс.

Аудио #2
Идентификатор                            : 2
Формат                                   : AC-3
Формат/Информация                        : Audio Coding 3
Расширение режима                        : CM (complete main)
Параметр Endianness формата              : Big
Идентификатор кодека                     : 2000
Продолжительность                        : 24 м.
Вид битрейта                             : Постоянный
Битрейт                                  : 192 Кбит/сек
Каналы                                   : 2 канала
Расположение каналов                     : Front: L R
Частота                                  : 48,0 КГц
Битовая глубина                          : 16 бит
Метод сжатия                             : С потерями
Размер потока                            : 33,0 Мбайт (11%)
Выравнивание                             : Разделение по промежуткам
Продолжительность промежутка             : 42  мс. (1,00 видеокадр)
Время предзагрузки промежутка            : 500  мс.



Семпл: http://sendfile.su/796073



   Похожие торренты   Торрент   Размер 
В этой теме нет новых непрочитанных сообщений. Некий научный Рейлган [ТВ-2] / Toaru Kagaku no Railgun S [TV] [01-24 из 24+SP] (2013) HDTVRip 720 | Persona99

14 | 17

9.42 ГБ

В этой теме нет новых непрочитанных сообщений. Некий научный Рейлган [ТВ-2] / Toaru Kagaku no Railgun S [TV] [01-10 из 24] (2013) HDTVRip | Persona99

13 | 2

2.82 ГБ

В этой теме нет новых непрочитанных сообщений. Индекс Волшебства (фильм+спецвыпуск) / Gekijouban Toaru Majutsu no Index: Endymion no Kiseki (2013) | Persona99

43 | 4

1.57 ГБ

В этой теме нет новых непрочитанных сообщений. Индекс Волшебства (фильм+спецвыпуск) / Gekijouban Toaru Majutsu no Index: Endymion no Kiseki (2013) BDRip 1080 | Persona99

18 | 2

5.01 ГБ

В этой теме нет новых непрочитанных сообщений. Все ради науки / Kagaku na Yatsura [OVA] [1 из 1] (2013) BDRip 720p | L1

13 | 3

353.22 МБ

В этой теме нет новых непрочитанных сообщений. Ван-Пис / One Piece [601-800] (2013-2017) HDTVRip | Persona99

1 | 8

57.68 ГБ

В этой теме нет новых непрочитанных сообщений. Ван-Пис / One Piece [601-700] (2013-2015) HDTVRip 720p | Persona99

4 | 27

40.22 ГБ




Вы не можете начинать темы
Вы не можете отвечать на сообщения
Вы не можете редактировать свои сообщения
Вы не можете удалять свои сообщения
Вы не можете добавлять вложения

Перейти:  
Для Мосгорсуда, Роскомнадзора и рекламодателей: mosgorsud-torrent[собачка]yandex.ru
 Вход
ppkBB3cker v.2 © 2008-2014 @ PPK
[ Time : 0.052s | 16 Queries | GZIP : Off ]

cron