img image001 image001 image001 image001 image001 image001 image001 image001 image001 image001 image001 image001 image001 image001 image001

Planets Sun Sun Sun
Статистика раздачи
Автор: Nickolas3434 | Размер: 1.17 ГБ | Добавлен: 20 июл 2014
Раздают: 89    Качают: 82
Скачать торрент
Скачать торрент
Описание торрента

СообщениеДобавлено: 20 июл 2014 

Информация о фильме
Название: Токийский гуль / Токийский монстр
Оригинальное название: Tokyo Ghoul / 東京喰種[トウキョウグール]
Страна: Япония
Год выхода: 2014
Жанр: приключения
Режиссер: Морита Сюхэй / Morita Shuhei / 森田修平
Автор оригинала: Исида Суи / Ishida Sui / 石田スイ

О фильме: Токио сотрясает серия жестоких убийств, на местах преступлений туго с уликами, но все уверены, что виновники – монстры, пожирающие людей, хотя никто толком не знает, кто они или как выглядят. А двое студентов колледжа – Канеки и Хиде – считают, что монстры до сих пор не обнаружили только потому, что они очень ловко маскируются под своих жертв... Однажды в своём любимом кафе Канеки знакомится с Ризе, девушкой столь же охочей до чтения, как и он сам. Парень ещё и не подозревает, что вся его жизнь вот-вот измениться самым кардинальным образом.

Студия:

Продолжительность: ТВ (>12 эп.), 25 мин.
Перевод: Любительский (двухголосый)
Озвучка: loster01 & Emeri
Субтитры: отсутствуют
Хардсаб: отсутствует
Перевод на русский: [Cafesubs (перевод: Anku; редактура: mutagenb)]

Файл
Качество: HDTVRip [Leopard-Raws]
Формат: MP4
Видео: 1280 x 720 (16:9) at 23.976 fps, AVC (x264), High@L3.0, 2182 Kbps avg, 0.099 bit/pixel, 8 bit
Аудио: 48.0 kHz, AAC, 2 ch, 256 kbps avg

Релиз от: & Ani-mania

Общее
Полное имя : [Ani-Maia_&_LE-Production]_Tokyo_Ghoul_[rus]_[1280x720_x264]_[loster01&Emeri][Ani-Maia_&_LE-Production]_Tokyo_Ghoul_[01]_[rus]_[1280x720_x264]_[loster01&Emeri].mp4
Формат : MPEG-4
Профиль формата : Base Media
Идентификатор кодека : isom
Размер файла : 433 Мбайт
Продолжительность : 24 м.
Общий поток : 2442 Кбит/сек
Дата кодирования : UTC 2014-07-03 09:34:30
Дата пометки : UTC 2014-07-03 09:34:30
Программа кодирования : Yamb 2.1.0.0 [http://yamb.unite-video.com]

Видео
Идентификатор : 1
Формат : AVC
Формат/Информация : Advanced Video Codec
Профиль формата : High@L3.0
Параметр CABAC формата : Да
Параметр ReFrames формата : 4 кадры
Идентификатор кодека : avc1
Идентификатор кодека/Информация : Advanced Video Coding
Продолжительность : 24 м.
Вид битрейта : Переменный
Битрейт : 2182 Кбит/сек
Максимальный битрейт : 8697 Кбит/сек
Ширина : 1280 пикс.
Высота : 720 пикс.
Соотношение сторон : 16:9
Режим частоты кадров : Постоянный
Частота кадров : 23,976 кадр/сек
Цветовое пространство : YUV
Подвыборка цветности : 4:2:0
Битовая глубина : 8 бит
Тип развёртки : Прогрессивная
Бит/(Пиксели*Кадры) : 0.099
Размер потока : 387 Мбайт (89%)
Библиотека кодирования : x264 core 130 r2273 b3065e6
Настройки программы : cabac=1 / ref=1 / deblock=1:0:0 / analyse=0x3:0x3 / me=dia / subme=1 / psy=1 / psy_rd=1.00:0.00 / mixed_ref=0 / me_range=16 / chroma_me=1 / trellis=0 / 8x8dct=1 / cqm=0 / deadzone=21,11 / fast_pskip=1 / chroma_qp_offset=0 / threads=12 / lookahead_threads=2 / sliced_threads=0 / nr=0 / decimate=1 / interlaced=0 / bluray_compat=0 / constrained_intra=0 / bframes=3 / b_pyramid=2 / b_adapt=1 / b_bias=0 / direct=1 / weightb=1 / open_gop=0 / weightp=1 / keyint=250 / keyint_min=23 / scenecut=40 / intra_refresh=0 / rc=crf / mbtree=0 / crf=21.0 / qcomp=0.60 / qpmin=0 / qpmax=69 / qpstep=4 / ip_ratio=1.40 / pb_ratio=1.30 / aq=1:1.00
Дата кодирования : UTC 2014-07-03 09:34:30
Дата пометки : UTC 2014-07-03 09:34:39

Аудио
Идентификатор : 2
Формат : AAC
Формат/Информация : Advanced Audio Codec
Профиль формата : LC
Идентификатор кодека : 40
Продолжительность : 24 м.
Вид битрейта : Переменный
Битрейт : 256 Кбит/сек
Максимальный битрейт : 263 Кбит/сек
Канал(ы) : 2 канала(ов)
Расположение каналов : Front: L R
Частота : 48,0 КГц
Метод сжатия : С потерями
Размер потока : 45,4 Мбайт (10%)
Дата кодирования : UTC 2014-07-03 09:34:36
Дата пометки : UTC 2014-07-03 09:34:39

01. Токийский гуль
02. Инкубация
03. Белый голубь





   Похожие торренты   Торрент   Размер 
В этой теме нет новых непрочитанных сообщений. Токийский гуль / Токийский монстр / Tokyo Ghoul [TV] [01-02 из 12] (2014) HDTVRip 720p | LE-Production

51 | 20

821.8 МБ

В этой теме нет новых непрочитанных сообщений. Токийский гуль / Токийский монстр / Tokyo Ghoul [TV] [01-11 из 12] (2014) HDTVRip 720p | LE-Production

45 | 28

4.52 ГБ

В этой теме нет новых непрочитанных сообщений. Токийский гуль / Токийский монстр / Tokyo Ghoul [TV] [01-05 из 12] (2014) HDTVRip 720p | LE-Production

33 | 37

2.45 ГБ

В этой теме нет новых непрочитанных сообщений. Токийский гуль / Токийский монстр / Tokyo Ghoul [TV] [01-04 из 12] (2014) HDTVRip 720p | LE-Production

14 | 49

1.58 ГБ

В этой теме нет новых непрочитанных сообщений. Токийский гуль / Токийский монстр / Tokyo Ghoul [TV] [01-05 из 12] (2014) HDTVRip 720p | LE-Production

29 | 29

1.98 ГБ

В этой теме нет новых непрочитанных сообщений. Токийский гуль / Токийский монстр / Tokyo Ghoul [TV] [01 из 12] (2014) HDTVRip 720p | LE-Production

25 | 10

432.84 МБ

В этой теме нет новых непрочитанных сообщений. Токийский гуль / Токийский монстр / Tokyo Ghoul [TV] [01-12 из 12] (2014) HDTVRip 720p | LE-Production

526 | 104

4.9 ГБ




Вы не можете начинать темы
Вы не можете отвечать на сообщения
Вы не можете редактировать свои сообщения
Вы не можете удалять свои сообщения
Вы не можете добавлять вложения

Перейти:  
Для Мосгорсуда, Роскомнадзора и рекламодателей: mosgorsud-torrent[собачка]yandex.ru
 Вход
ppkBB3cker v.2 © 2008-2014 @ PPK
[ Time : 0.423s | 15 Queries | GZIP : Off ]

Торрент трекер RUTOR.IN, Не можете зайти на rutor.org? Какой новый адрес рутор? Какое зеркало рутор? Не работает rutor.org и зеркала? Тогда наш торрент специально для вас. Rutor.in неофициальное зеркало rutor. В случае если у Вас заблокирован rutor или вдруг Вы не можете на него зайти, то Вы без труда сможете скачать бесплатно и без рекламы последние новинки кино, игр, сериалов и прочего у нас, на Rutor.in. Не нужно использовать прокси, чтобы зайти на рутор, достаточно воспользоваться нашим ресурсом. Все новые фильмы, игры, сериалы, книги и музыка за 2013 и 2014 годы через торрент бесплатно. Скачивайте фильмы в хорошем качестве, игры для пк, xbox, playstation без регистрации. У нас вы найдете новые Зарубежные сериалы и Русские сериалы 2013, 2014, 2015 годов. Оставайтесь с нами, качайте любимые фильмы, игры, сериалы, книги и музыку.