img image001 image001 image001 image001 image001 image001 image001 image001 image001 image001 image001 image001 image001 image001 image001

Planets Sun Sun Sun
Статистика раздачи
Автор: Nickolas3434 | Размер: 1.92 ГБ | Добавлен: 20 июл 2014
Раздают: 18    Качают: 14
Скачать торрент
Скачать торрент
Описание торрента

СообщениеДобавлено: 20 июл 2014 

Информация о фильме

Название : Буквоежка / Литературная барышня
Оригинальное название : Gekijouban Bungaku Shoujo / 劇場版"文学少女"
Год выхода : 2010
Жанр : драма, романтика
Режиссер : Тада Сюнсукэ
Роли озвучивали : Кана Ханадзава, Ирино Мию, Аки Тоёсаки, Асами Шимода, Дайсукэ Оно, Мамору Мияно, Нана Мидзуки, Шизука Ито
Роли дублировали: Кадзуси Акутагава — Николай Байбаков, Токо Амано — Елена Симанович, Коноха Иноуэ — Олег Бондарь, Маки Химэкура — Татьяна Бабенкова, мать Миу — Татьяна Бабенкова, Миу Асакура — Людмила Гуськова, Мори Курара — Анастасия Цыбакова, Нанасэ Котобуки — Екатерина Пухначева, Рюто Сакураи — Вячеслав Аринчехин, сестра — Татьяна Анисимова, Тиа Такэда — Екатерина Астрединова

Выражается ОГРОМНАЯ благодарность компании Реанимедия за появление этого диска на свет. Только благодаря им в России до сих пор выпускаются аниме релизы. На следующий год у них запланировано еще много интересных релизов. Для того чтобы дела компании шли хорошо и они и дальше нас радовали новыми релизами - поддержите компанию, купите это издание в их магазине - Магазин Otaku.
Описание : Главный герой - Коноха Иноуэ - выглядит обычным старшеклассником. Его школьная жизнь могла бы показаться совершенно неинтересной, если бы не хранимый им секрет - он хотел стать писателем - автором женских романтических бестселлеров. Однако после одного неприятного эпизода, произошедшего два года назад, он поклялся себе никогда больше не писать.
Все меняется, когда он переходит в новую школу. Президент литературного кружка Токо Амано буквально вынуждает его вступить в клуб. Токо питается книгами, поэтому теперь каждый день после занятий Коноха пишет для нее новую литературную пищу.

Страна : Япония
Производство : Production I.G.
Продолжительность : 01:41:55
Перевод : Профессиональный (полное дублирование) Reanimedia
Русские субтитры : есть
Релиз : Страник 2.0

Файл
Формат видео : AVI
Качество : BDRip (исходник: Blu-ray Disc)

Видео: XviD, 720x400 (16:9), 1928 Кбит/с, 23.976 fps, 8 bit
Аудио 1: Русский, AC3, 384 Кбит/с, 48.0 Hz, 6 ch (в составе контейнера) Дублированый [Reanimedia]
Аудио 2: Японский, AC3, 384 Кбит/с, 48.0 Hz, 3 ch (в составе контейнера)
Субтитры (srt): Русские (надписи / полные) [Reanimedia] (внешним файлом)









General
Complete name : E:/Torrent_2/Gekijouban Bungaku Shoujo (2010, XviD BDRip, RUS JAP+SUB) [Stranik 2.0]/Gekijouban Bungaku Shoujo (2010, XviD BDRip, RUS JAP+SUB) [Stranik 2.0].avi
Format : AVI
Format/Info : Audio Video Interleave
Format profile : OpenDML
Format settings : rec
File size : 1.92 GiB
Duration : 1h 41mn
Overall bit rate : 2 701 Kbps
Writing application : AVI-Mux GUI 1.17.8.3, Feb 16 201019:42:50

Video #0
ID : 0
Format : MPEG-4 Visual
Format profile : Advanced Simple@L5
Format settings, BVOP : 1
Format settings, QPel : No
Format settings, GMC : No warppoints
Format settings, Matrix : Default (H.263)
Codec ID : XVID
Codec ID/Hint : XviD
Duration : 1h 41mn
Bit rate : 1 928 Kbps
Width : 720 pixels
Height : 400 pixels
Display aspect ratio : 16:9
Frame rate : 23.976 fps
Color space : YUV
Chroma subsampling : 4:2:0
Bit depth : 8 bits
Scan type : Progressive
Compression mode : Lossy
Bits/(Pixel*Frame) : 0.279
Stream size : 1.37 GiB (71%)
Writing library : XviD 1.2.1 (UTC 2008-12-04)

Audio #1
ID : 1
Format : AC-3
Format/Info : Audio Coding 3
Mode extension : CM (complete main)
Format settings, Endianness : Big
Codec ID : 2000
Duration : 1h 41mn
Bit rate mode : Constant
Bit rate : 384 Kbps
Channel(s) : 6 channels
Channel positions : Front: L C R, Side: L R, LFE
Sampling rate : 48.0 KHz
Bit depth : 16 bits
Compression mode : Lossy
Stream size : 279 MiB (14%)
Alignment : Aligned on interleaves
Interleave, duration : 64 ms (1.54 video frames)
Interleave, preload duration : 192 ms

Audio #2
ID : 2
Format : AC-3
Format/Info : Audio Coding 3
Mode extension : CM (complete main)
Format settings, Endianness : Big
Codec ID : 2000
Duration : 1h 41mn
Bit rate mode : Constant
Bit rate : 384 Kbps
Channel(s) : 4 channels
Channel(s)_Original : 3 channels
Channel positions : Front: L C R
Sampling rate : 48.0 KHz
Bit depth : 16 bits
Compression mode : Lossy
Stream size : 279 MiB (14%)
Alignment : Aligned on interleaves
Interleave, duration : 64 ms (1.54 video frames)
Interleave, preload duration : 192 ms







   Похожие торренты   Торрент   Размер 
В этой теме нет новых непрочитанных сообщений. Литературная барышня - Фильм / Книжная Лакомка / Gekijouban Bungaku Shoujo (2010) BDRip | L

51 | 3

1.02 ГБ

В этой теме нет новых непрочитанных сообщений. Буквоежка / Bungaku shôjo / Book Girl (2010) Blu-ray

8 | 5

23.1 ГБ

В этой теме нет новых непрочитанных сообщений. Литературная девушка / Bungaku Shoujo: Kyou no Oyatsu - Hatsukoi [OVA] [1 из 1] (2009) BDRip-1080p (Hi10P) | L1

9 | 3

378.66 МБ

В этой теме нет новых непрочитанных сообщений. Буквоежка / Bungaku shojo (2010) BDRip-AVC | iPad | D

25 | 3

1.43 ГБ

В этой теме нет новых непрочитанных сообщений. Буквоежка / Bungaku shojo (2010) BDRip-AVC | iPad | D

9 | 9

1.43 ГБ

В этой теме нет новых непрочитанных сообщений. Записки литературной барышни / Книжная Лакомка: Воспоминания / Bungaku Shoujo Memoire [OVA] [03 из 03] (2010) DVDRip | L2

15 | 13

1.92 ГБ

В этой теме нет новых непрочитанных сообщений. Gekijouban Mahou Shoujo Madoka Magica / Девочка-волшебница Мадока (Фильмы) [Movie] [1 из 3] (2013) BDRip 1080p | AniFilm MVO

11 | 5

9.58 ГБ




Вы не можете начинать темы
Вы не можете отвечать на сообщения
Вы не можете редактировать свои сообщения
Вы не можете удалять свои сообщения
Вы не можете добавлять вложения

Перейти:  
Для Мосгорсуда, Роскомнадзора и рекламодателей: mosgorsud-torrent[собачка]yandex.ru
 Вход
ppkBB3cker v.2 © 2008-2014 @ PPK
[ Time : 0.058s | 15 Queries | GZIP : Off ]

Торрент трекер RUTOR.IN, Не можете зайти на rutor.org? Какой новый адрес рутор? Какое зеркало рутор? Не работает rutor.org и зеркала? Тогда наш торрент специально для вас. Rutor.in неофициальное зеркало rutor. В случае если у Вас заблокирован rutor или вдруг Вы не можете на него зайти, то Вы без труда сможете скачать бесплатно и без рекламы последние новинки кино, игр, сериалов и прочего у нас, на Rutor.in. Не нужно использовать прокси, чтобы зайти на рутор, достаточно воспользоваться нашим ресурсом. Все новые фильмы, игры, сериалы, книги и музыка за 2013 и 2014 годы через торрент бесплатно. Скачивайте фильмы в хорошем качестве, игры для пк, xbox, playstation без регистрации. У нас вы найдете новые Зарубежные сериалы и Русские сериалы 2013, 2014, 2015 годов. Оставайтесь с нами, качайте любимые фильмы, игры, сериалы, книги и музыку.