img image001 image001 image001 image001 image001 image001 image001 image001 image001 image001 image001 image001 image001 image001 image001

Planets Sun Sun Sun
Статистика раздачи
Автор: Nickolas3434 | Размер: 1.93 ГБ | Добавлен: 22 июл 2014
Раздают: 157    Качают: 11
Скачать торрент
Скачать торрент
Описание торрента

СообщениеДобавлено: 22 июл 2014 

Информация о фильме

Название : Унесенные призраками
Оригинальное название : Spirited Away / Sen to Chihiro no kamikakushi / 千と千尋の神隠し
Год выхода : 2001
Жанр : приключения, фэнтези, драма
Режиссер : Хаяо Миядзаки

Описание : Маленькая Тихиро вместе с мамой и папой переезжают в новый дом. Заблудившись по дороге, они оказываются в странном пустынном городе, где их ждет великолепный пир. Родители с жадностью набрасываются на еду и к ужасу девочки превращаются в свиней, став пленниками злой колдуньи Юбабы, властительницы таинственного мира древних богов и могущественных духов.

Теперь, оказавшись одна среди магических существ и загадочных видений, отважная Тихиро должна придумать, как избавить своих родителей от чар коварной старухи и спастись из пугающего царства призраков…
Страна : Япония
Производство : Studio Ghibli
Продолжительность : 02:04:32
Перевод : Профессиональный (полное дублирование) CP-Digital
Автор рипа и релиза :

Файл
Формат видео : AVI
Качество : BDRip (исходник: BDRemux - Sen to Chihiro no kamikakushi 2001 BDRemux 1080p)

Видео: XviD, 720x384 (1.85:1), 1700 Кбит/с, 23.976 fps, 8 bit
Аудио 1: Русский, AC3, 256 Кбит/с, 48.0 Hz, 6 ch (в составе контейнера)
Аудио 2: Японский, AC3, 256 Кбит/с, 48.0 Hz, 6 ch (в составе контейнера)
Субтитры 1(srt): Русские [R5] (внешним файлом)
Субтитры 2(srt): Английские (внешним файлом)








General
Complete name : E:/Torrent_2/Spirited Away (2001, XviD BDRip, RUS JAP+SUB) [Stranik 2.0]/Spirited Away (2001, XviD BDRip, RUS JAP+SUB) [Stranik 2.0].avi
Format : AVI
Format/Info : Audio Video Interleave
Format profile : OpenDML
Format settings : rec
File size : 1.93 GiB
Duration : 2h 4mn
Overall bit rate : 2 221 Kbps
Writing application : AVI-Mux GUI 1.17.8.3, Feb 16 201019:42:50

Video #0
ID : 0
Format : MPEG-4 Visual
Format profile : Advanced Simple@L5
Format settings, BVOP : 1
Format settings, QPel : No
Format settings, GMC : No warppoints
Format settings, Matrix : Default (H.263)
Codec ID : XVID
Codec ID/Hint : XviD
Duration : 2h 4mn
Bit rate : 1 702 Kbps
Width : 720 pixels
Height : 384 pixels
Display aspect ratio : 1.85:1
Frame rate : 23.976 fps
Color space : YUV
Chroma subsampling : 4:2:0
Bit depth : 8 bits
Scan type : Progressive
Compression mode : Lossy
Bits/(Pixel*Frame) : 0.257
Stream size : 1.48 GiB (77%)
Writing library : XviD 1.2.1 (UTC 2008-12-04)

Audio #1
ID : 1
Format : AC-3
Format/Info : Audio Coding 3
Mode extension : CM (complete main)
Format settings, Endianness : Big
Codec ID : 2000
Duration : 2h 4mn
Bit rate mode : Constant
Bit rate : 256 Kbps
Channel(s) : 6 channels
Channel positions : Front: L C R, Side: L R, LFE
Sampling rate : 48.0 KHz
Bit depth : 16 bits
Compression mode : Lossy
Stream size : 228 MiB (12%)
Alignment : Aligned on interleaves
Interleave, duration : 64 ms (1.53 video frames)
Interleave, preload duration : 192 ms

Audio #2
ID : 2
Format : AC-3
Format/Info : Audio Coding 3
Mode extension : CM (complete main)
Format settings, Endianness : Big
Codec ID : 2000
Duration : 2h 4mn
Bit rate mode : Constant
Bit rate : 256 Kbps
Channel(s) : 6 channels
Channel positions : Front: L C R, Side: L R, LFE
Sampling rate : 48.0 KHz
Bit depth : 16 bits
Compression mode : Lossy
Stream size : 228 MiB (12%)
Alignment : Aligned on interleaves
Interleave, duration : 64 ms (1.53 video frames)
Interleave, preload duration : 192 ms







   Похожие торренты   Торрент   Размер 
В этой теме нет новых непрочитанных сообщений. Унесённые призраками / Spirited Away / Sen to Chihiro no kamikakushi (2001) BDRip от HQCLUB

128 | 16

2.18 ГБ

В этой теме нет новых непрочитанных сообщений. Унесенные призраками / Spirited Away / Sen to Chihiro no kamikakushi (2001) BDRip 1080p от NNNB

148 | 56

7.95 ГБ

В этой теме нет новых непрочитанных сообщений. Унесённые призраками / Spirited Away / Sen to Chihiro no Kamikakushi (2001) BDRip 1080p от HDCLUB

8 | 19

21.93 ГБ

В этой теме нет новых непрочитанных сообщений. Унесенные призраками / Sen to Chihiro no kamikakushi / Spirited away (2001) DVDRip

1566 | 43

2.05 ГБ

В этой теме нет новых непрочитанных сообщений. Унесенные Призраками / Spirited Away / Sen To Chihiro No Kamikakushi (2001) HDRip от Scarabey | D

548 | 23

748.29 МБ

В этой теме нет новых непрочитанных сообщений. Унесенные призраками / Sen to Chihiro no kamikakushi / Spirited away (2001) HDTVRip by Andrjuha-bratan

20 | 7

3 ГБ

В этой теме нет новых непрочитанных сообщений. Унесённые призраками / Sen to Chihiro no kamikakushi (2001) BDRip | D, P, P2, A

27 | 31

6.45 ГБ




Вы не можете начинать темы
Вы не можете отвечать на сообщения
Вы не можете редактировать свои сообщения
Вы не можете удалять свои сообщения
Вы не можете добавлять вложения

Перейти:  
Для Мосгорсуда, Роскомнадзора и рекламодателей: mosgorsud-torrent[собачка]yandex.ru
 Вход
ppkBB3cker v.2 © 2008-2014 @ PPK
[ Time : 0.034s | 16 Queries | GZIP : Off ]

Торрент трекер RUTOR.IN, Не можете зайти на rutor.org? Какой новый адрес рутор? Какое зеркало рутор? Не работает rutor.org и зеркала? Тогда наш торрент специально для вас. Rutor.in неофициальное зеркало rutor. В случае если у Вас заблокирован rutor или вдруг Вы не можете на него зайти, то Вы без труда сможете скачать бесплатно и без рекламы последние новинки кино, игр, сериалов и прочего у нас, на Rutor.in. Не нужно использовать прокси, чтобы зайти на рутор, достаточно воспользоваться нашим ресурсом. Все новые фильмы, игры, сериалы, книги и музыка за 2013 и 2014 годы через торрент бесплатно. Скачивайте фильмы в хорошем качестве, игры для пк, xbox, playstation без регистрации. У нас вы найдете новые Зарубежные сериалы и Русские сериалы 2013, 2014, 2015 годов. Оставайтесь с нами, качайте любимые фильмы, игры, сериалы, книги и музыку.
cron