img image001 image001 image001 image001 image001 image001 image001 image001 image001 image001 image001 image001 image001 image001 image001

Planets Sun Sun Sun
Статистика раздачи
Автор: Nickolas3434 | Размер: 520.31 МБ | Добавлен: 22 июл 2014
Раздают: 142    Качают: 76
Скачать торрент
Скачать торрент
Описание торрента

СообщениеДобавлено: 22 июл 2014 

Оригинальное название: Pokemon: Black and White - Adventures in Unova
Русское название: Покемон: Чёрное и Белое - Приключения в Юнове

Страна: Япония / США
Год выпуска: 2013 г.
Жанр: приключения, комедия, фэнтези
Тип: TV-сериал
Серии: 1 из 45 эпизодов по 21 минуте
Перевод: Дублированный
Автор оригинала: Тадзири Сатоси
Режиссер оригинала: Юяма Кунихико
Студия: OLM

Релиз подготовлен группой Free Releasers Team "SORA"
Перевод и озвучивание: SDI Media
Захват звука: Shaman-aka-King, Vinozavr (телеканал "2х2")
Сведение звука: Ampho_dub
Роли озвучивали: Лариса Некипелова, Дарья Фролова, Жанна Никонова, Дмитрий Филимонов, Евгений Вальц, Петр Иващенко, Диомид Виноградов, Александр Головчанский, Ольга Шорохова, Алексей Костричкин, Александр Гаврилин, Александр Хорлин, Даниил Эльдаров, Михаил Тихонов, Антон Ковалев

Описание: Эш и его друзья, Айрис и Сайлан помешали коварному плану команды Ракета и продолжили свой путь! С восемью значками он готов двигаться к своей конечной цели: Лиги Юнова. Там он встретит своих старых знакомых, а также новых противников на пути становления мастером покемонов! Между тем у Айрис проблемы, она никак не может поладить с её сильным и упрямым покемоном. Для этого она возвращаеться в свою деревню Драконов, чтобы попросить совета и помощи в становлении мастера драконов. Итак, новые захватывающие приключения наших героев продолжаются!

Качество: HDTVRip | Формат: MKV | Энкод: Pokemon_Poster
Видео: x264 (8 bit) 1280x720, ~3000 kbps, 29.970 fps
Аудио 1: AC-3, 192 kbps, 48.0 kHz, 2 ch
Аудио 2: AC-3, 480 kbps, 48.0 kHz, 6 ch
С01: Сражение красавиц за честь и престиж!

General
Unique ID : 184931908575986605134959083053209122032 (0x8B20970CDB251CA8AAA43F61891874F0)
Complete name : [FRT Sora] Pokemon BW Adventures in Unova[FRT Sora] Pokemon S16 E01 [720p-x264-DUB].mkv
Format : Matroska
Format version : Version 4 / Version 2
File size : 520 MiB
Duration : 20mn 49s
Overall bit rate : 3 493 Kbps
Encoded date : UTC 2014-07-18 14:36:00
Writing application : mkvmerge v7.0.0 ('Where We Going') 64bit built on Jun 9 2014 15:16:27
Writing library : libebml v1.3.0 + libmatroska v1.4.1
DURATION : 00:20:49.504000000
NUMBER_OF_FRAMES : 39047
NUMBER_OF_BYTES : 29988096
_STATISTICS_WRITING_APP : mkvmerge v7.0.0 ('Where We Going') 64bit built on Jun 9 2014 15:16:27
_STATISTICS_WRITING_DATE_UTC : 2014-07-18 14:36:00
_STATISTICS_TAGS : BPS DURATION NUMBER_OF_FRAMES NUMBER_OF_BYTES

Video
ID : 1
Format : AVC
Format/Info : Advanced Video Codec
Format profile : High@L4.1
Format settings, CABAC : Yes
Format settings, ReFrames : 9 frames
Codec ID : V_MPEG4/ISO/AVC
Duration : 20mn 49s
Bit rate : 2 784 Kbps
Width : 1 280 pixels
Height : 720 pixels
Display aspect ratio : 16:9
Frame rate mode : Constant
Frame rate : 29.970 fps
Color space : YUV
Chroma subsampling : 4:2:0
Bit depth : 8 bits
Scan type : Progressive
Bits/(Pixel*Frame) : 0.101
Stream size : 415 MiB (80%)
Title : 720p / x264
Writing library : x264 core 129 r2230 1cffe9f
Encoding settings : cabac=1 / ref=9 / deblock=1:1:1 / analyse=0x3:0x113 / me=umh / subme=8 / psy=1 / psy_rd=0.40:0.00 / mixed_ref=1 / me_range=16 / chroma_me=1 / trellis=1 / 8x8dct=1 / cqm=0 / deadzone=21,11 / fast_pskip=1 / chroma_qp_offset=-2 / threads=6 / lookahead_threads=1 / sliced_threads=0 / nr=0 / decimate=1 / interlaced=0 / bluray_compat=0 / constrained_intra=0 / bframes=5 / b_pyramid=0 / b_adapt=2 / b_bias=0 / direct=3 / weightb=1 / open_gop=0 / weightp=2 / keyint=300 / keyint_min=29 / scenecut=40 / intra_refresh=0 / rc_lookahead=50 / rc=crf / mbtree=1 / crf=15.5 / qcomp=0.60 / qpmin=12 / qpmax=25 / qpstep=4 / ip_ratio=1.40 / aq=1:0.60
Language : English
Default : Yes
Forced : No
DURATION : 00:20:49.515000000
NUMBER_OF_FRAMES : 37448
NUMBER_OF_BYTES : 445258211
_STATISTICS_WRITING_APP : mkvmerge v7.0.0 ('Where We Going') 64bit built on Jun 9 2014 15:16:27
_STATISTICS_WRITING_DATE_UTC : 2014-07-18 14:36:00
_STATISTICS_TAGS : BPS DURATION NUMBER_OF_FRAMES NUMBER_OF_BYTES

Audio #1
ID : 2
Format : AC-3
Format/Info : Audio Coding 3
Mode extension : CM (complete main)
Format settings, Endianness : Big
Codec ID : A_AC3
Duration : 20mn 49s
Bit rate mode : Constant
Bit rate : 192 Kbps
Channel(s) : 2 channels
Channel positions : Front: L R
Sampling rate : 48.0 KHz
Bit depth : 16 bits
Compression mode : Lossy
Stream size : 28.6 MiB (5%)
Title : 2.0 AC3 (192 Kbps)
Language : Russian
Default : Yes
Forced : No

Audio #2
ID : 3
Format : AC-3
Format/Info : Audio Coding 3
Mode extension : CM (complete main)
Format settings, Endianness : Big
Codec ID : A_AC3
Duration : 20mn 49s
Bit rate mode : Constant
Bit rate : 448 Kbps
Channel(s) : 6 channels
Channel positions : Front: L C R, Side: L R, LFE
Sampling rate : 48.0 KHz
Bit depth : 16 bits
Compression mode : Lossy
Delay relative to video : 80ms
Stream size : 66.7 MiB (13%)
Title : 5.1 AC3 (448 Kbps)
Language : English
Default : No
Forced : No




   Похожие торренты   Торрент   Размер 
В этой теме нет новых непрочитанных сообщений. Pokemon GO / Покемон го [v.0.29.3] (2016) Android

466 | 16

58.06 МБ

В этой теме нет новых непрочитанных сообщений. Покемон / Pokemon [S01] (1997) DVDRip

182 | 39

6.49 ГБ

В этой теме нет новых непрочитанных сообщений. Покемон: Фильм Первы - Мьюту Наносит Ответный Удар / Pokemon: The First Movie - Mewtwo Strikes Back (1999) BDRip 720p | D, P, A

114 | 6

1.67 ГБ

В этой теме нет новых непрочитанных сообщений. Покемон. Оранжевая Лига / Pokemon [02х83-118] (2001) DVDRip

162 | 18

5.96 ГБ

В этой теме нет новых непрочитанных сообщений. Покемон: Фильм 13 / Pokemon: Zoroark: Master of Illusions (2010) HDRip | Лицензия

146 | 4

1.37 ГБ

В этой теме нет новых непрочитанных сообщений. Черное зеркало: Белое Рождество / Black Mirror: White Chirstmas (2014) HDTVRip 720p | P 2

674 | 14

1.24 ГБ

В этой теме нет новых непрочитанных сообщений. Чёрное зеркало: Белое Рождество / Black Mirror: White Chirstmas [03x01] (2014) HDTVRip 720p | Baibako

354 | 17

2.5 ГБ




Вы не можете начинать темы
Вы не можете отвечать на сообщения
Вы не можете редактировать свои сообщения
Вы не можете удалять свои сообщения
Вы не можете добавлять вложения

Перейти:  
Для Мосгорсуда, Роскомнадзора и рекламодателей: mosgorsud-torrent[собачка]yandex.ru
 Вход
ppkBB3cker v.2 © 2008-2014 @ PPK
[ Time : 0.034s | 16 Queries | GZIP : Off ]

Торрент трекер RUTOR.IN, Не можете зайти на rutor.org? Какой новый адрес рутор? Какое зеркало рутор? Не работает rutor.org и зеркала? Тогда наш торрент специально для вас. Rutor.in неофициальное зеркало rutor. В случае если у Вас заблокирован rutor или вдруг Вы не можете на него зайти, то Вы без труда сможете скачать бесплатно и без рекламы последние новинки кино, игр, сериалов и прочего у нас, на Rutor.in. Не нужно использовать прокси, чтобы зайти на рутор, достаточно воспользоваться нашим ресурсом. Все новые фильмы, игры, сериалы, книги и музыка за 2013 и 2014 годы через торрент бесплатно. Скачивайте фильмы в хорошем качестве, игры для пк, xbox, playstation без регистрации. У нас вы найдете новые Зарубежные сериалы и Русские сериалы 2013, 2014, 2015 годов. Оставайтесь с нами, качайте любимые фильмы, игры, сериалы, книги и музыку.
cron