img image001 image001 image001 image001 image001 image001 image001 image001 image001 image001 image001 image001 image001 image001 image001

Planets Sun Sun Sun
Статистика раздачи
Автор: Nickolas3434 | Размер: 2.43 ГБ | Добавлен: 23 июл 2014
Раздают: 29    Качают: 12
Скачать торрент
Скачать торрент
Описание торрента

СообщениеДобавлено: 23 июл 2014 

Унесённые призраками / Sen to Chihiro no Kamikakush (2001) BDRip-AVC | iPad | D,P,A
«The tunnel led Chihiro to a mysterious town...»


Название: Унесённые призраками
Оригинальное название: Sen to Chihiro no Kamikakushi / 千と千尋の神隠し
Год выхода: 2001
Жанр: аниме, мультфильм, фэнтези
Режиссер: Хаяо Миядзаки
В ролях: Руми Хираги, Такаши Найто, Ясуко Савагучи, Ирино Мию, Бунта Сугавара, Мари Нацуки, Юми Тамаи, Тацуя Гасюин, Акио Накамура, Рюноскэ Камики

О фильме:
Маленькая Тихиро вместе с мамой и папой переезжают в новый дом. Заблудившись по дороге, они оказываются в странном пустынном городе, где их ждет великолепный пир. Родители с жадностью набрасываются на еду и к ужасу девочки превращаются в свиней, став пленниками злой колдуньи Юбабы, властительницы таинственного мира древних богов и могущественных духов.
Теперь, оказавшись одна среди магических существ и загадочных видений, отважная Тихиро должна придумать, как избавить своих родителей от чар коварной старухи и спастись из пугающего царства призраков...


Страна: Япония
Студия: Studio Ghibli, Nippon Television Network (NTV), DENTSU Music And Entertainment

Продолжительность: 02:04:32
Перевод: Русский дублированный, профессиональный многоголосый закадровый, авторский. Английский дублированный

Файл
Кодек: H.264
Качество: BDRip [576p]
Видео: 1024x554 (1.85:1) at 23.976 fps, AVC at 2200 kbps
Звук:
1: АAС 2.0 137 kbps - Русский дублированный ("Невафильм", R5, CP Digital/RUSCICO)
2: АAС 2.0 150 kbps - Русский профессиональный многоголосый закадровый (2x2)
3: АAС 2.0 137 kbps - Русский авторский (Ю. Сербин)
4: АAС 2.0 150 kbps - Английский дублированный
Субтитры: Отсутствует

General
Complete name : I:modoutSen.to.Chihiro.no.Kamikakush.2001.576p.DA.m4v
Format : MPEG-4
Codec ID : M4V
File size : 2.43 GiB
Duration : 2h 4mn
Overall bit rate mode : Variable
Overall bit rate : 2 790 Kbps
Movie name : Унесённые призраками
Performer : Hayao Miyazaki
Genre : Animation
ContentType : Short Film
Deion : Маленькая Тихиро вместе с мамой и папой переезжают в новый дом. Заблудившись по дороге, они оказываются в странном пустынном городе, где их ждет великолепный пир. Родители с жадностью набрасываются на еду и к ужасу девочки превращаются в свиней
Recorded date : UTC 2001-07-20 08:00:00
Encoded date : UTC 2014-07-22 08:10:59
Tagged date : UTC 2014-07-22 08:14:47
Copyright : Studio Ghibli, Nippon Television Network (NTV), DENTSU
Cover : Yes
Comment : «The tunnel led Chihiro to a mysterious town...»
ContentRating : mpaa|PG|200|

Title/Sort : Sen to Chihiro no kamikakushi / 千と千尋の神隠し
LongDeion : Маленькая Тихиро вместе с мамой и папой переезжают в новый дом. Заблудившись по дороге, они оказываются в странном пустынном городе, где их ждет великолепный пир. Родители с жадностью набрасываются на еду и к ужасу девочки превращаются в свиней, став пленниками злой колдуньи Юбабы, властительницы таинственного мира древних богов и могущественных духов. Теперь, оказавшись одна среди магических существ и загадочных видений, отважная Тихиро должна придумать, как избавить своих родителей от чар коварной старухи и спастись из пугающего царства призраков…
AppleStoreCatalogID : 370
Vendor : Apple:vendor_id:2001-370

Video
ID : 1
Format : AVC
Format/Info : Advanced Video Codec
Format profile : High@L4.1
Format settings, CABAC : Yes
Format settings, ReFrames : 10 frames
Codec ID : avc1
Codec ID/Info : Advanced Video Coding
Duration : 2h 4mn
Bit rate : 2 196 Kbps
Maximum bit rate : 15.1 Mbps
Width : 1 024 pixels
Height : 554 pixels
Display aspect ratio : 1.85:1
Frame rate mode : Constant
Frame rate : 23.976 fps
Color space : YUV
Chroma subsampling : 4:2:0
Bit depth : 8 bits
Scan type : Progressive
Bits/(Pixel*Frame) : 0.161
Stream size : 1.91 GiB (79%)
Title : Sen.to.Chihiro.no.Kamikakush.2001
Language : English
Encoded date : UTC 2014-07-22 08:10:59
Tagged date : UTC 2014-07-22 08:11:29
Matrix coefficients : BT.709

Audio #1
ID : 2
Format : AAC
Format/Info : Advanced Audio Codec
Format profile : LC
Codec ID : 40
Duration : 2h 4mn
Bit rate mode : Variable
Bit rate : 137 Kbps
Maximum bit rate : 192 Kbps
Channel(s) : 2 channels
Channel positions : Front: L R
Sampling rate : 48.0 KHz
Compression mode : Lossy
Stream size : 122 MiB (5%)
Title : DUB Neva
Language : Russian
Encoded date : UTC 2014-07-22 07:59:55
Tagged date : UTC 2014-07-22 08:11:29

Audio #2
ID : 3
Format : AAC
Format/Info : Advanced Audio Codec
Format profile : LC
Codec ID : 40
Duration : 2h 4mn
Bit rate mode : Variable
Bit rate : 151 Kbps
Maximum bit rate : 190 Kbps
Channel(s) : 2 channels
Channel positions : Front: L R
Sampling rate : 48.0 KHz
Compression mode : Lossy
Stream size : 134 MiB (5%)
Title : DUB 2x2
Language : Russian
Encoded date : UTC 2014-07-22 08:11:20
Tagged date : UTC 2014-07-22 08:11:29

Audio #3
ID : 4
Format : AAC
Format/Info : Advanced Audio Codec
Format profile : LC
Codec ID : 40
Duration : 2h 4mn
Bit rate mode : Variable
Bit rate : 137 Kbps
Maximum bit rate : 204 Kbps
Channel(s) : 2 channels
Channel positions : Front: L R
Sampling rate : 48.0 KHz
Compression mode : Lossy
Stream size : 122 MiB (5%)
Title : AVO Serbin
Language : Russian
Encoded date : UTC 2014-07-22 08:04:18
Tagged date : UTC 2014-07-22 08:11:29

Audio #4
ID : 5
Format : AAC
Format/Info : Advanced Audio Codec
Format profile : LC
Codec ID : 40
Duration : 2h 4mn
Bit rate mode : Variable
Bit rate : 151 Kbps
Maximum bit rate : 209 Kbps
Channel(s) : 2 channels
Channel positions : Front: L R
Sampling rate : 48.0 KHz
Compression mode : Lossy
Stream size : 134 MiB (5%)
Title : DUB
Language : English
Encoded date : UTC 2014-07-22 08:08:40
Tagged date : UTC 2014-07-22 08:11:29

Menu
ID : 6
Codec ID : text
Duration : 2h 4mn
Encoded date : UTC 2014-07-22 08:12:06
Tagged date : UTC 2014-07-22 08:12:06
Bit rate mode : CBR

x264 [info]: frame I:1367 Avg QP:14.64 size:152519
x264 [info]: frame P:39399 Avg QP:19.30 size: 32205
x264 [info]: frame B:138389 Avg QP:23.03 size: 4146
x264 [info]: consecutive B-frames: 3.3% 2.6% 9.2% 16.6% 14.2% 31.3% 10.3% 6.6% 3.2% 0.9% 0.6% 0.7% 0.3%
x264 [info]: mb I I16..4: 17.9% 18.5% 63.6%
x264 [info]: mb P I16..4: 1.0% 1.6% 3.0% P16..4: 24.1% 22.8% 21.8% 7.2% 3.1% skip:15.4%
x264 [info]: mb B I16..4: 0.1% 0.1% 0.2% B16..8: 25.6% 8.6% 2.3% direct: 1.8% skip:61.3% L0:47.2% L1:42.0% BI:10.8%
x264 [info]: 8x8 transform intra:25.2% inter:18.2%
x264 [info]: coded y,uvDC,uvAC intra: 70.1% 66.8% 52.8% inter: 11.5% 6.4% 5.0%
x264 [info]: i16 v,h,dc,p: 13% 23% 25% 39%
x264 [info]: i8 v,h,dc,ddl,ddr,vr,hd,vl,hu: 12% 15% 16% 8% 9% 9% 10% 9% 13%
x264 [info]: i4 v,h,dc,ddl,ddr,vr,hd,vl,hu: 21% 16% 17% 7% 8% 7% 7% 7% 10%
x264 [info]: i8c dc,h,v,p: 36% 34% 19% 11%
x264 [info]: Weighted P-Frames: Y:1.3% UV:0.9%
x264 [info]: ref P L0: 46.8% 4.9% 16.0% 8.0% 6.3% 5.2% 4.5% 2.8% 2.6% 2.5% 0.4% 0.0%
x264 [info]: ref B L0: 69.2% 10.0% 7.0% 3.7% 3.0% 2.5% 2.1% 1.5% 1.1%
x264 [info]: ref B L1: 93.8% 6.2%
x264 [info]: kb/s:2195.95

Sort Name: Sen to Chihiro no kamikakushi
XID: Apple:vendor_id:2001-370
Content ID: 370
Copyright: Studio Ghibli, Nippon Television Network (NTV), DENTSU
ScreenWriters: Хаяо Миядзаки
Producers: Тосио Судзуки, Дональд В. Эрнст, Лори Корнгебель
Director: Хаяо Миядзаки
Cast: Дэйви Чейз, Сюзанн Плешетт, Сьюзэн Иган, Дэвид Огден Стайерз, Лорен Холли, Майкл Чиклис, Джон Ратценбергер, Джек Эйнджел, Боб Берген, Роджер Бампасс / Rumi Hiiragi (Chihiro), Miyu Irino (Haku), Mari Natsuki (Yubaba), Takashi Naitô (Chihiro's Father), Yasuko Sawaguchi (Chihiro's Mother), Tatsuya Gashûin (Aogaeru), Yumi Tamai (Lin), Yo Oizumi (Bandai-gaeru), Koba Hayashi (Kawa no Kami), Tsunehiko Kamijô (Chichiyaku), Takehiko Ono (Aniyaku), Ryûnosuke Kamiki (Bôh), Bunta Sugawara (Kamajî)
Rating: PG
Long Deion: Маленькая Тихиро вместе с мамой и папой переезжают в новый дом. Заблудившись по дороге, они оказываются в странном пустынном городе, где их ждет великолепный пир. Родители с жадностью набрасываются на еду и к ужасу девочки превращаются в свиней, став пленниками злой колдуньи Юбабы, властительницы таинственного мира древних богов и могущественных духов. Теперь, оказавшись одна среди магических существ и загадочных видений, отважная Тихиро должна придумать, как избавить своих родителей от чар коварной старухи и спастись из пугающего царства призраков…
Deion: Маленькая Тихиро вместе с мамой и папой переезжают в новый дом. Заблудившись по дороге, они оказываются в странном пустынном городе, где их ждет великолепный пир. Родители с жадностью набрасываются на еду и к ужасу девочки превращаются в свиней
Release Date: 2001-07-20T08:00:00Z
Genre: Animation
Artist: Hayao Miyazaki
Name: Унесённые призраками
Comments: «The tunnel led Chihiro to a mysterious town...»







   Похожие торренты   Торрент   Размер 
В этой теме нет новых непрочитанных сообщений. Унесённые призраками / Sen to Chihiro no kamikakushi (2001) BDRip | D, P, P2, A

27 | 31

6.45 ГБ

В этой теме нет новых непрочитанных сообщений. Унесённые призраками / Sen to Chihiro no kamikakushi (2001) BDRip 720p

529 | 72

3.27 ГБ

В этой теме нет новых непрочитанных сообщений. Унесённые призраками / Sen to Chihiro no kamikakushi (2001) BDRip-AVC от HQCLUB

272 | 24

2.91 ГБ

В этой теме нет новых непрочитанных сообщений. Унесённые призраками / Sen to Chihiro no kamikakushi (2001) BDRip-AVC от MediaClub

18 | 14

6.49 ГБ

В этой теме нет новых непрочитанных сообщений. Унесённые призраками / Spirited Away / Sen to Chihiro no kamikakushi (2001) BDRip от HQCLUB

128 | 16

2.18 ГБ

В этой теме нет новых непрочитанных сообщений. Унесённые призраками / Sen to Chihiro no kamikakushi (2001) BDRip HEVC 1080p

177 | 8

4.5 ГБ

В этой теме нет новых непрочитанных сообщений. Унесенные призраками / Spirited Away / Sen to Chihiro no kamikakushi (2001) BDRip от Stranik 2.0

157 | 11

1.93 ГБ




Вы не можете начинать темы
Вы не можете отвечать на сообщения
Вы не можете редактировать свои сообщения
Вы не можете удалять свои сообщения
Вы не можете добавлять вложения

Перейти:  
Для Мосгорсуда, Роскомнадзора и рекламодателей: mosgorsud-torrent[собачка]yandex.ru
 Вход
ppkBB3cker v.2 © 2008-2014 @ PPK
[ Time : 0.044s | 16 Queries | GZIP : Off ]

cron