img image001 image001 image001 image001 image001 image001 image001 image001 image001 image001 image001 image001 image001 image001 image001

Planets Sun Sun Sun
Статистика раздачи
Автор: Nickolas3434 | Размер: 1.34 ГБ | Добавлен: 23 июл 2014
Раздают: 42    Качают: 12
Скачать торрент
Скачать торрент
Описание торрента

СообщениеДобавлено: 23 июл 2014 

Искусство Меча Онлайн: Экстра-издание / Sword Art Online: Extra Edition / Мастера Меча Онлайн: Послесловие

Страна: Япония
Год выпуска: 2013 г.
Жанр: приключения, фэнтези
Тип: Special
Продолжительность: ТВ-спэшл, 100 мин.
Режиссер: Ито Томохико
Описание:
Во время подводного квеста в Alfeim Online выясняется, что Лифа не умеет плавать. Поэтому Асуна и другие девушки вызывается помочь Сугухе потренироваться в бассейне в реальном мире. В это же время Кирито встречается с элитным членом виртуального отдела Министерства внутренних дел и рассказывает о том, что на самом деле произошло в Aincrad и в Alfheim.

Доп. информация:
Релиз GSGroup

Эта серия состоит из:
#1 Sword Art Online - ТВ (25 эп.), адаптация ранобэ, 2012
#2 Sword Art Online: Extra Edition - ТВ-спэшл, продолжение, 2013 (720)
#3 Sword Art Online II - ТВ (>24 эп.), продолжение, 2014

Качество: BDRip
Тип релиза: Без хардсаба
Формат видео: AVI
Совместимость с бытовыми плеерами: Да
Видео: XviD, 720x400, 23.976 fps, 1504 kbps
Аудио 1: AC-3, 48 kHz, 192.00 kbps Язык Русский (в составе контейнера) ; Озвучка: Одноголосый женский: Persona99
Аудио 2: AC-3, 48 kHz, 192.00 kbps, Язык Японский ; Озвучка 2: оригинал
Субтитры: ASS, srt, внешние Язык субтитров русский ; Перевод: Evafan Оформление: Jaga
Код:
Общее
Полное имя : Sword Art Online Extra Edition (Rus)Sword Art Online Extra Edition [Persona99](BD 720x400 XviD AC3).rus.jap.avi
Формат : AVI
Формат/Информация : Audio Video Interleave
Размер файла : 1,34 Гбайт
Продолжительность : 1 ч. 40 м.
Общий поток : 1902 Кбит/сек
Программа кодирования : VirtualDubMod 1.5.10.2 (build 2540/release)
Библиотека кодирования : VirtualDubMod build 2540/release

Видео
Идентификатор : 0
Формат : MPEG-4 Visual
Профиль формата : Advanced Simple@L5
Параметр BVOP формата : 2
Параметр QPel формата : Нет
Параметр GMC формата : Без точки перехода
Параметр матрицы формата : Default (H.263)
Идентификатор кодека : XVID
Идентификатор кодека/Подсказка : XviD
Продолжительность : 1 ч. 40 м.
Битрейт : 1504 Кбит/сек
Ширина : 720 пикселей
Высота : 400 пикселей
Соотношение сторон : 16:9
Частота кадров : 23,976 кадра/сек
Цветовое пространство : YUV
Субдискретизация насыщенности : 4:2:0
Битовая глубина : 8 бит
Тип развёртки : Прогрессивная
Метод сжатия : С потерями
Бит/(Пиксели*Кадры) : 0.218
Размер потока : 1,06 Гбайт (79%)
Библиотека кодирования : XviD 1.2.1 (UTC 2008-12-04)

Аудио #1
Идентификатор : 1
Формат : AC-3
Формат/Информация : Audio Coding 3
Расширение режима : CM (complete main)
Параметр Endianness формата : Big
Идентификатор кодека : 2000
Продолжительность : 1 ч. 40 м.
Вид битрейта : Постоянный
Битрейт : 192 Кбит/сек
Каналы : 2 канала
Расположение каналов : Front: L R
Частота : 48,0 КГц
Битовая глубина : 16 бит
Метод сжатия : С потерями
Размер потока : 138 Мбайт (10%)
Выравнивание : Разделение по промежуткам
Продолжительность промежутка : 42 мс. (1,00 видеокадр)
Время предзагрузки промежутка : 500 мс.

Аудио #2
Идентификатор : 2
Формат : AC-3
Формат/Информация : Audio Coding 3
Расширение режима : CM (complete main)
Параметр Endianness формата : Big
Идентификатор кодека : 2000
Продолжительность : 1 ч. 40 м.
Вид битрейта : Постоянный
Битрейт : 192 Кбит/сек
Каналы : 2 канала
Расположение каналов : Front: L R
Частота : 48,0 КГц
Битовая глубина : 16 бит
Метод сжатия : С потерями
Размер потока : 138 Мбайт (10%)
Выравнивание : Разделение по промежуткам
Продолжительность промежутка : 42 мс. (1,00 видеокадр)
Время предзагрузки промежутка : 500 мс.


Семпл:



   Похожие торренты   Торрент   Размер 
В этой теме нет новых непрочитанных сообщений. Мастера Меча Онлайн: Послесловие / Sword Art Online: Extra Edition [Special] (2013) BDRip 720 | Persona99

69 | 17

1.4 ГБ

В этой теме нет новых непрочитанных сообщений. Мастера Меча Онлайн: Послесловие / Sword Art Online: Extra Edition [Special] (2013) HDTV-Rip 720p | L2 | Animedia

102 | 10

1.32 ГБ

В этой теме нет новых непрочитанных сообщений. Искусство Меча Онлайн: спешл / Мастера Меча Онлайн (спешл) / Sword Art Online: Extra Edition [Special] (2013) HDTVRip 720p | L1

150 | 12

1.36 ГБ

В этой теме нет новых непрочитанных сообщений. Мастера меча онлайн 2 / Sword Art Online II [TV] [01-03 из 24] (2014) HDTVRip 720 от Persona99

15 | 4

1.25 ГБ

В этой теме нет новых непрочитанных сообщений. Мастера меча онлайн 2 / Sword Art Online II [TV] [01-24 из 24] (2014) HDTVRip 720 | Persona99

39 | 14

11.38 ГБ

В этой теме нет новых непрочитанных сообщений. Мастера меча онлайн 2 / Sword Art Online II [TV] [01-02 из 24] (2014) HDTVRip 720 | Persona99

10 | 9

884.59 МБ

В этой теме нет новых непрочитанных сообщений. Мастера меча онлайн / Искусство меча онлайн / Sword Art Online [S01] (2012) BDRip 720p | P, 9xL

275 | 55

21.56 ГБ




Вы не можете начинать темы
Вы не можете отвечать на сообщения
Вы не можете редактировать свои сообщения
Вы не можете удалять свои сообщения
Вы не можете добавлять вложения

Перейти:  
Для Мосгорсуда, Роскомнадзора и рекламодателей: mosgorsud-torrent[собачка]yandex.ru
 Вход
ppkBB3cker v.2 © 2008-2014 @ PPK
[ Time : 0.048s | 17 Queries | GZIP : Off ]

Торрент трекер RUTOR.IN, Не можете зайти на rutor.org? Какой новый адрес рутор? Какое зеркало рутор? Не работает rutor.org и зеркала? Тогда наш торрент специально для вас. Rutor.in неофициальное зеркало rutor. В случае если у Вас заблокирован rutor или вдруг Вы не можете на него зайти, то Вы без труда сможете скачать бесплатно и без рекламы последние новинки кино, игр, сериалов и прочего у нас, на Rutor.in. Не нужно использовать прокси, чтобы зайти на рутор, достаточно воспользоваться нашим ресурсом. Все новые фильмы, игры, сериалы, книги и музыка за 2013 и 2014 годы через торрент бесплатно. Скачивайте фильмы в хорошем качестве, игры для пк, xbox, playstation без регистрации. У нас вы найдете новые Зарубежные сериалы и Русские сериалы 2013, 2014, 2015 годов. Оставайтесь с нами, качайте любимые фильмы, игры, сериалы, книги и музыку.