img image001 image001 image001 image001 image001 image001 image001 image001 image001 image001 image001 image001 image001 image001 image001

Planets Sun Sun Sun
Статистика раздачи
Автор: Nickolas3434 | Размер: 1.97 ГБ | Добавлен: 26 июл 2014
Раздают: 64    Качают: 34
Скачать торрент
Скачать торрент
Описание торрента

СообщениеДобавлено: 26 июл 2014 

Информация о фильме

Название : Метрополис
Оригинальное название : Metoroporisu / Metropolis / 千と千尋の神隠し
Год выхода : 2001
Жанр : приключения, фантастика, драма
Режиссер : Ринтаро

Описание : Многомиллионная армия роботов заменила людей на заводах и фабриках. Миром правят могущественные главы планетарных суперкорпораций. На этом фоне разворачивается история девочки-киборга, созданной гениальным ученым и обладающей точным сходством с умершей дочерью деспотичного правителя Метрополиса.

Ей было предназначено стать ключом к власти над всем миром. Но в один роковой день она таинственно исчезает… По ее следу пускается опытный детектив и его сын, не подозревая, что тем самым они ввязываются в величайшую битву Добра и Зла, которую только видела Земля.
Страна : Япония
Производство : Mad House
Продолжительность : 01:47:32
Перевод : Профессиональный (полное дублирование) ОРТ
Автор рипа и релиза :

Файл
Формат видео : AVI
Качество : BDRip (исходник: BDRemux - Метрополис [BDRemux])

Видео: XviD, 720x384 (1.85:1), 2000 Кбит/с, 23.976 fps, 8 bit
Аудио 1: Русский, AC3, 224 Кбит/с, 48.0 Hz, 2 ch (в составе контейнера) Дублированый [ОРТ]
Аудио 2: Японский, AC3, 384 Кбит/с, 48.0 Hz, 6 ch (в составе контейнера)
Субтитры 1(srt): Русские [от sumnix] (внешним файлом)
Субтитры 2(srt): Английские [U.S. Theatrical] (внешним файлом)








General
Complete name : E:/Torrent_2/Metropolis (2001, XviD BDRip, RUS JAP+SUB) [Stranik 2.0]/Metropolis (2001, XviD BDRip, RUS JAP+SUB) [Stranik 2.0].avi
Format : AVI
Format/Info : Audio Video Interleave
Format profile : OpenDML
Format settings : rec
File size : 1.97 GiB
Duration : 1h 47mn
Overall bit rate : 2 616 Kbps
Writing application : AVI-Mux GUI 1.17.8.3, Feb 16 201019:42:50
Video #0
ID : 0
Format : MPEG-4 Visual
Format profile : Advanced Simple@L5
Format settings, BVOP : 2
Format settings, QPel : No
Format settings, GMC : No warppoints
Format settings, Matrix : Default (H.263)
Codec ID : XVID
Codec ID/Hint : XviD
Duration : 1h 47mn
Bit rate : 2 001 Kbps
Width : 720 pixels
Height : 384 pixels
Display aspect ratio : 1.85:1
Frame rate : 23.976 fps
Color space : YUV
Chroma subsampling : 4:2:0
Bit depth : 8 bits
Scan type : Progressive
Compression mode : Lossy
Bits/(Pixel*Frame) : 0.302
Stream size : 1.50 GiB (76%)
Writing library : XviD 1.2.1 (UTC 2008-12-04)

Audio #1
ID : 1
Format : AC-3
Format/Info : Audio Coding 3
Mode extension : CM (complete main)
Format settings, Endianness : Big
Codec ID : 2000
Duration : 1h 47mn
Bit rate mode : Constant
Bit rate : 224 Kbps
Channel(s) : 2 channels
Channel positions : Front: L R
Sampling rate : 48.0 KHz
Bit depth : 16 bits
Compression mode : Lossy
Stream size : 172 MiB (9%)
Alignment : Aligned on interleaves
Interleave, duration : 64 ms (1.53 video frames)
Interleave, preload duration : 192 ms

Audio #2
ID : 2
Format : AC-3
Format/Info : Audio Coding 3
Mode extension : CM (complete main)
Format settings, Endianness : Big
Codec ID : 2000
Duration : 1h 47mn
Bit rate mode : Constant
Bit rate : 384 Kbps
Channel(s) : 6 channels
Channel positions : Front: L C R, Side: L R, LFE
Sampling rate : 48.0 KHz
Bit depth : 16 bits
Compression mode : Lossy
Stream size : 295 MiB (15%)
Alignment : Aligned on interleaves
Interleave, duration : 64 ms (1.53 video frames)
Interleave, preload duration : 192 ms







   Похожие торренты   Торрент   Размер 
В этой теме нет новых непрочитанных сообщений. Метрополис / Metropolis / Metoroporisu (2001) BDRip 1080p от NNNB | D, P

98 | 107

5.76 ГБ

В этой теме нет новых непрочитанных сообщений. Метрополис / Metoroporisu (2001) BDRip-AVC | iPad | D,P

41 | 8

2.32 ГБ

В этой теме нет новых непрочитанных сообщений. Метрополис / Metropolis (1927) BDRip от HQCLUB |Complete Restored Edition|

8 | 2

2.18 ГБ

В этой теме нет новых непрочитанных сообщений. Метрополис / Metropolis (1927) BDRip-AVC от MediaClub | Полная отреставрированная версия

93 | 5

3.08 ГБ

В этой теме нет новых непрочитанных сообщений. Метрополис / Metropolis (1927) HDTVRip | Полная версия

25 | 4

1.47 ГБ

В этой теме нет новых непрочитанных сообщений. Метрополис / Metropolis (1927) HDTVRip | Полная версия

10 | 2

773.62 МБ

В этой теме нет новых непрочитанных сообщений. Метрополис / Metropolis [THE COMPLETE RESTORED VERSION] (1927) HDTVRip 720p

268 | 7

4.93 ГБ




Вы не можете начинать темы
Вы не можете отвечать на сообщения
Вы не можете редактировать свои сообщения
Вы не можете удалять свои сообщения
Вы не можете добавлять вложения

Перейти:  
Для Мосгорсуда, Роскомнадзора и рекламодателей: mosgorsud-torrent[собачка]yandex.ru
 Вход
ppkBB3cker v.2 © 2008-2014 @ PPK
[ Time : 0.438s | 15 Queries | GZIP : Off ]

Торрент трекер RUTOR.IN, Не можете зайти на rutor.org? Какой новый адрес рутор? Какое зеркало рутор? Не работает rutor.org и зеркала? Тогда наш торрент специально для вас. Rutor.in неофициальное зеркало rutor. В случае если у Вас заблокирован rutor или вдруг Вы не можете на него зайти, то Вы без труда сможете скачать бесплатно и без рекламы последние новинки кино, игр, сериалов и прочего у нас, на Rutor.in. Не нужно использовать прокси, чтобы зайти на рутор, достаточно воспользоваться нашим ресурсом. Все новые фильмы, игры, сериалы, книги и музыка за 2013 и 2014 годы через торрент бесплатно. Скачивайте фильмы в хорошем качестве, игры для пк, xbox, playstation без регистрации. У нас вы найдете новые Зарубежные сериалы и Русские сериалы 2013, 2014, 2015 годов. Оставайтесь с нами, качайте любимые фильмы, игры, сериалы, книги и музыку.