img image001 image001 image001 image001 image001 image001 image001 image001 image001 image001 image001 image001 image001 image001 image001

Planets Sun Sun Sun
Статистика раздачи
Автор: Nickolas3434 | Размер: 9.46 ГБ | Добавлен: 26 июл 2014
Раздают: 17    Качают: 7
Скачать торрент
Скачать торрент
Описание торрента

СообщениеДобавлено: 26 июл 2014 

Унесённые призраками / Spirited Away / Sen to Chihiro no kamikakushi (2001) BDRip 720p
от HQCLUB



Информация о фильме
Название: Унесённые призраками
Оригинальное название: Sen to Chihiro no kamikakushi
Год выхода: 2001
Жанр: аниме, мультфильм, фэнтези, приключения, семейный
Режиссер: Хаяо Миядзаки

В ролях: Руми Хираги, Такаши Найто, Ясуко Савагучи, Ирино Мию, Бунта Сугавара, Мари Нацуки, Юми Тамаи, Тацуя Гасюин, Акио Накамура, Рюноскэ Камики

О фильме: Маленькая Тихиро вместе с мамой и папой переезжают в новый дом. Заблудившись по дороге, они оказываются в странном пустынном городе, где их ждет великолепный пир. Родители с жадностью набрасываются на еду и к ужасу девочки превращаются в свиней, став пленниками злой колдуньи Юбабы, властительницы таинственного мира древних богов и могущественных духов.

Теперь, оказавшись одна среди магических существ и загадочных видений, отважная Тихиро должна придумать, как избавить своих родителей от чар коварной старухи и спастись из пугающего царства призраков…

«The tunnel led Chihiro to a mysterious town...»




Релиз от -
Автор рипа: Elheym

Выпущено: Япония, Studio Ghibli
Продолжительность: 02:04:32
Перевод 1: Профессиональный (полное дублирование), Невафильм
Перевод 2: Многоголосый (закадровый), DVDXpert
Перевод 3: Многоголосый (закадровый), 2х2
Перевод 4: Двухголосый (закадровый), Tycoon-Studio
Перевод 5: Двухголосый (закадровый), П. Гланц, И. Королёва
Перевод 6: Одноголосый (закадровый), Ю. Сербин
Перевод 7: Одноголосый (закадровый), А. Гаврилов
Перевод 8: Одноголосый (закадровый), А. Толстобров
Перевод 9: Одноголосый (закадровый), С. Рябов
Перевод 10: Одноголосый (закадровый), Е. Рудой
Оригинальная аудио дорожка: японский
Субтитры: русские (полные), украинские (полные), английские (полные)

ЦитатаКто-то писал:
Исходник для дорожки №1 взят с коллекционного трехдискового издания DVD R5 CP Digital, за который спасибо gelezny.
Исходник для дорожки №2 взят с DVD-приложения к журналу DVDXpert, за который спасибо GarfieldX. За помощь в поиске исходника спасибо Zuluz. В центральном канале исходника лежал чистый голос, спасибо издателю! Данная озвучка в сеть выкладывается впервые!
В дорожке №3 закадровую озвучку на четыре голоса осуществили актера дубляжа: Алексей Борзунов, Елена Борзунова, Александр Комлев и еще одна актриса, чей голос опознать не удалось. Данная озвучка в сеть выкладывается впервые!
Дорожки №№2,4,5,6,7,9,10 получены наложением чистого голоса, а дорожка №8 наложением выделенного голоса на центр декодированного DTS-HD MA.
За чистые голоса Гаврилова, Рябова спасибо sergey_n. За чистый голос Гланца и Королевой спасибо ресурсу glanz.ru.
За исходники для дорожек №№11,12 и украинские субтитры спасибо ресурсу Hurtom.
Перевод и озвучивание Юрия Сербина осуществлены в рамках совместного проекта HDCLUB (сервис "Озвучивание") и форума Е180. Спонсоры: : evg1976, Beonikol, 8bitman, mmmsoft, alexvrubel, AnryV, zaxxy, tft, Rayan, dotCom, Scaramouche, Andy_Ko. Е180: safreks, phaeton77, Daniel Rock, carnivale, Эдуард, Bilko, Ramis, SilverBeast, Pumamen, vik19662007. Для меценатов HDCLUB релиз золотом.
Сборка и сведение звука осуществленна при финансовой поддержке пользователей HDCLUB, и только благодаря им данный релиз состоялся! Спонсоры: tambov68, muha, Олег_Роде, Confidence, ultrajeka, hardkatok, vilych, zaxxy, rgv, Sauron, Beonikol, Kenzojapan. Для меценатов релиз золотом.
За работу над субтитрами спасибо zaxxy. Русские и украинские субтитры были по-фразно синхронизированы под оригинал с блюрея, также были исправлены грамматические ошибки и пунктуация. Ни один из шести существующих фансаберских вариантов русских субтитров (CaH4e3 & Centaur, CaH4e3, Kon, Toph, А.Панина & С.Бобылев, А.Панина), некоторые из которых идентичны, не были включены в релиз, т.к. перевод в них сильно уступает в качестве официальному от "Невафильм", а местами просто повторяет его. В английских субтитрах с блюрея исправлен тайминг, в котором был небольшой рассинхрон.

Файл:
Формат: MKV
Качество: BDRip 720p (источник: / BDRemux / 1080p)
Видео: 1280x690 (1,855:1), 23.976 fps, MPEG-4 AVC, ~3460 kbps avg, 0.163 bit/pixel, 8 bit
Аудио #1: Russian: 48 kHz, AC3, 3/2 (L,C,R,l,r) + LFE ch, ~640 kbps avg |Дубляж, Невафильм, R5, CP Digital/RUSCICO|
Аудио #2: Russian: 48 kHz, AC3, 3/2 (L,C,R,l,r) + LFE ch, ~640 kbps avg |Многоголосый закадровый, DVDXpert|
Аудио #3: Russian: 48 kHz, AC3, 2/0 (L,R) ch, ~192 kbps avg |Многоголосый закадровый, 2х2|
Аудио #4: Russian: 48 kHz, AC3, 3/2 (L,C,R,l,r) + LFE ch, ~640 kbps avg |Двухголосый закадровый, Tycoon-Studio|
Аудио #5: Russian: 48 kHz, AC3, 3/2 (L,C,R,l,r) + LFE ch, ~640 kbps avg |Двухголосый закадровый, П. Гланц, И. Королёва|
Аудио #6: Russian: 48 kHz, AC3, 3/2 (L,C,R,l,r) + LFE ch, ~640 kbps avg |Одноголосый закадровый, Ю. Сербин|
Аудио #7: Russian: 48 kHz, AC3, 3/2 (L,C,R,l,r) + LFE ch, ~640 kbps avg |Одноголосый закадровый, А. Гаврилов|
Аудио #8: Russian: 48 kHz, AC3, 3/2 (L,C,R,l,r) + LFE ch, ~640 kbps avg |Одноголосый закадровый, А. Толстобров|
Аудио #9: Russian: 48 kHz, AC3, 3/2 (L,C,R,l,r) + LFE ch, ~640 kbps avg |Одноголосый закадровый, С. Рябов|
Аудио #10: Russian: 48 kHz, AC3, 3/2 (L,C,R,l,r) + LFE ch, ~640 kbps kbps avg |Одноголосый закадровый, Е. Рудой|
Аудио #11: Ukrainian: 48 kHz, AC3, 2/0 (L,R) ch, ~192 kbps avg |Многоголосый закадровый, ТЕТ|
Аудио #12: Ukrainian: 48 kHz, AC3, 2/0 (L,R) ch, ~192 kbps avg |Многоголосый закадровый, R.G. AnimEx & AniFilm & UkrDub|
Аудио #13: English: 48 kHz, AC3, 3/2 (L,C,R,l,r) + LFE ch, ~448.00 kbps avg |Дубляж|
Аудио #14: Japanese: 48 kHz, AC3, 3/2 (L,C,R,l,r) + LFE ch, ~640 kbps avg |Оригинал|
Размер: 9.46 GB
Сэмпл: скачать



Уникальный идентификатор : 188254629627946520351160349350258771740 (0x8DA085D8A54427B5918636A58F3F871C)
Полное имя : Spirited.Away.2001.720p.BluRay.10xRus.2xUkr.Eng.Jpn.-HQCLUB.mkv
Формат : Matroska
Версия формата : Version 2
Размер файла : 9,46 Гбайт
Продолжительность : 2 ч. 4 м.
Общий поток : 10,9 Мбит/сек
Дата кодирования : UTC 2014-07-25 16:06:36
Программа кодирования : mkvmerge v5.2.0 ('I can't explain') built on Dec 18 2011 18:12:03
Библиотека кодирования : libebml v1.2.3 + libmatroska v1.3.0

Видео
Идентификатор : 1
Формат : AVC
Формат/Информация : Advanced Video Codec
Профиль формата : High@L4.1
Параметр CABAC формата : Да
Параметр ReFrames формата : 8 кадров
Идентификатор кодека : V_MPEG4/ISO/AVC
Продолжительность : 2 ч. 4 м.
Битрейт : 3236 Кбит/сек
Номинальный битрейт : 3460 Кбит/сек
Ширина : 1280 пикселей
Высота : 690 пикселей
Соотношение сторон : 1,85:1
Режим частоты кадров : Постоянный
Частота кадров : 23,976 кадра/сек
Цветовое пространство : YUV
Субдискретизация насыщенности : 4:2:0
Битовая глубина : 8 бит
Тип развёртки : Прогрессивная
Бит/(Пиксели*Кадры) : 0.153
Размер потока : 2,82 Гбайт (30%)
Заголовок : Унесённые призраками / Spirited Away / Sen to Chihiro no kamikakushi (2001) BDRip 720p by HQCLUB [Elheym]
Библиотека кодирования : x264 core 142 r2431 ac76440
Настройки программы : cabac=1 / ref=9 / deblock=1:-1:-1 / analyse=0x3:0x113 / me=umh / subme=11 / psy=1 / psy_rd=1.00:0.10 / mixed_ref=1 / me_range=32 / chroma_me=1 / trellis=2 / 8x8dct=1 / cqm=0 / deadzone=21,11 / fast_pskip=1 / chroma_qp_offset=-5 / threads=6 / lookahead_threads=1 / sliced_threads=0 / nr=0 / decimate=1 / interlaced=0 / bluray_compat=0 / constrained_intra=0 / bframes=12 / b_pyramid=1 / b_adapt=2 / b_bias=0 / direct=3 / weightb=1 / open_gop=0 / weightp=2 / keyint=240 / keyint_min=23 / scenecut=40 / intra_refresh=0 / rc_lookahead=40 / rc=2pass / mbtree=0 / bitrate=3460 / ratetol=1.0 / qcomp=0.60 / qpmin=10 / qpmax=69 / qpstep=4 / cplxblur=20.0 / qblur=0.5 / vbv_maxrate=50000 / vbv_bufsize=62500 / nal_hrd=none / filler=0 / ip_ratio=1.40 / pb_ratio=1.30 / aq=1:0.90
Язык : Japanese
Default : Да
Forced : Нет

Аудио #1
Идентификатор : 2
Формат : AC-3
Формат/Информация : Audio Coding 3
Расширение режима : CM (complete main)
Параметр Endianness формата : Big
Идентификатор кодека : A_AC3
Продолжительность : 2 ч. 4 м.
Вид битрейта : Постоянный
Битрейт : 640 Кбит/сек
Каналы : 6 каналов
Расположение каналов : Front: L C R, Side: L R, LFE
Частота : 48,0 КГц
Битовая глубина : 16 бит
Метод сжатия : С потерями
Размер потока : 570 Мбайт (6%)
Заголовок : AC3 5.1 @ 640 kbps - Dub, Nevafilm, R5, CP Digital/RUSCICO
Язык : Russian
Default : Нет
Forced : Нет

Аудио #2
Идентификатор : 3
Формат : AC-3
Формат/Информация : Audio Coding 3
Расширение режима : CM (complete main)
Параметр Endianness формата : Big
Идентификатор кодека : A_AC3
Продолжительность : 2 ч. 4 м.
Вид битрейта : Постоянный
Битрейт : 640 Кбит/сек
Каналы : 6 каналов
Расположение каналов : Front: L C R, Side: L R, LFE
Частота : 48,0 КГц
Битовая глубина : 16 бит
Метод сжатия : С потерями
Размер потока : 570 Мбайт (6%)
Заголовок : AC3 5.1 @ 640 kbps - MVO, DVDXpert
Язык : Russian
Default : Нет
Forced : Нет

Аудио #3
Идентификатор : 4
Формат : AC-3
Формат/Информация : Audio Coding 3
Расширение режима : CM (complete main)
Параметр Endianness формата : Big
Идентификатор кодека : A_AC3
Продолжительность : 2 ч. 4 м.
Вид битрейта : Постоянный
Битрейт : 192 Кбит/сек
Каналы : 2 канала
Расположение каналов : Front: L R
Частота : 48,0 КГц
Битовая глубина : 16 бит
Метод сжатия : С потерями
Размер потока : 171 Мбайт (2%)
Заголовок : AC3 2.0 @ 192 kbps - MVO, 2x2
Язык : Russian
Default : Нет
Forced : Нет

Аудио #4
Идентификатор : 5
Формат : AC-3
Формат/Информация : Audio Coding 3
Расширение режима : CM (complete main)
Параметр Endianness формата : Big
Идентификатор кодека : A_AC3
Продолжительность : 2 ч. 4 м.
Вид битрейта : Постоянный
Битрейт : 640 Кбит/сек
Каналы : 6 каналов
Расположение каналов : Front: L C R, Side: L R, LFE
Частота : 48,0 КГц
Битовая глубина : 16 бит
Метод сжатия : С потерями
Размер потока : 570 Мбайт (6%)
Заголовок : AC3 5.1 @ 640 kbps - DVO, Tycoon-Studio
Язык : Russian
Default : Нет
Forced : Нет

Аудио #5
Идентификатор : 6
Формат : AC-3
Формат/Информация : Audio Coding 3
Расширение режима : CM (complete main)
Параметр Endianness формата : Big
Идентификатор кодека : A_AC3
Продолжительность : 2 ч. 4 м.
Вид битрейта : Постоянный
Битрейт : 640 Кбит/сек
Каналы : 6 каналов
Расположение каналов : Front: L C R, Side: L R, LFE
Частота : 48,0 КГц
Битовая глубина : 16 бит
Метод сжатия : С потерями
Размер потока : 570 Мбайт (6%)
Заголовок : AC3 5.1 @ 640 kbps - DVO, Glanc & Koroljova
Язык : Russian
Default : Нет
Forced : Нет

Аудио #6
Идентификатор : 7
Формат : AC-3
Формат/Информация : Audio Coding 3
Расширение режима : CM (complete main)
Параметр Endianness формата : Big
Идентификатор кодека : A_AC3
Продолжительность : 2 ч. 4 м.
Вид битрейта : Постоянный
Битрейт : 640 Кбит/сек
Каналы : 6 каналов
Расположение каналов : Front: L C R, Side: L R, LFE
Частота : 48,0 КГц
Битовая глубина : 16 бит
Метод сжатия : С потерями
Размер потока : 570 Мбайт (6%)
Заголовок : AC3 5.1 @ 640 kbps - AVO, Serbin
Язык : Russian
Default : Нет
Forced : Нет

Аудио #7
Идентификатор : 8
Формат : AC-3
Формат/Информация : Audio Coding 3
Расширение режима : CM (complete main)
Параметр Endianness формата : Big
Идентификатор кодека : A_AC3
Продолжительность : 2 ч. 4 м.
Вид битрейта : Постоянный
Битрейт : 640 Кбит/сек
Каналы : 6 каналов
Расположение каналов : Front: L C R, Side: L R, LFE
Частота : 48,0 КГц
Битовая глубина : 16 бит
Метод сжатия : С потерями
Размер потока : 570 Мбайт (6%)
Заголовок : AC3 5.1 @ 640 kbps - AVO, Gavrilov
Язык : Russian
Default : Нет
Forced : Нет

Аудио #8
Идентификатор : 9
Формат : AC-3
Формат/Информация : Audio Coding 3
Расширение режима : CM (complete main)
Параметр Endianness формата : Big
Идентификатор кодека : A_AC3
Продолжительность : 2 ч. 4 м.
Вид битрейта : Постоянный
Битрейт : 640 Кбит/сек
Каналы : 6 каналов
Расположение каналов : Front: L C R, Side: L R, LFE
Частота : 48,0 КГц
Битовая глубина : 16 бит
Метод сжатия : С потерями
Размер потока : 570 Мбайт (6%)
Заголовок : AC3 5.1 @ 640 kbps - VO, Tolstobrov
Язык : Russian
Default : Нет
Forced : Нет

Аудио #9
Идентификатор : 10
Формат : AC-3
Формат/Информация : Audio Coding 3
Расширение режима : CM (complete main)
Параметр Endianness формата : Big
Идентификатор кодека : A_AC3
Продолжительность : 2 ч. 4 м.
Вид битрейта : Постоянный
Битрейт : 640 Кбит/сек
Каналы : 6 каналов
Расположение каналов : Front: L C R, Side: L R, LFE
Частота : 48,0 КГц
Битовая глубина : 16 бит
Метод сжатия : С потерями
Размер потока : 570 Мбайт (6%)
Заголовок : AC3 5.1 @ 640 kbps - AVO, Rjabov
Язык : Russian
Default : Нет
Forced : Нет

Аудио #10
Идентификатор : 11
Формат : AC-3
Формат/Информация : Audio Coding 3
Расширение режима : CM (complete main)
Параметр Endianness формата : Big
Идентификатор кодека : A_AC3
Продолжительность : 2 ч. 4 м.
Вид битрейта : Постоянный
Битрейт : 640 Кбит/сек
Каналы : 6 каналов
Расположение каналов : Front: L C R, Side: L R, LFE
Частота : 48,0 КГц
Битовая глубина : 16 бит
Метод сжатия : С потерями
Размер потока : 570 Мбайт (6%)
Заголовок : AC3 5.1 @ 640 kbps - AVO, Rudoj
Язык : Russian
Default : Нет
Forced : Нет

Аудио #11
Идентификатор : 12
Формат : AC-3
Формат/Информация : Audio Coding 3
Расширение режима : CM (complete main)
Параметр Endianness формата : Big
Идентификатор кодека : A_AC3
Продолжительность : 2 ч. 4 м.
Вид битрейта : Постоянный
Битрейт : 192 Кбит/сек
Каналы : 2 канала
Расположение каналов : Front: L R
Частота : 48,0 КГц
Битовая глубина : 16 бит
Метод сжатия : С потерями
Размер потока : 171 Мбайт (2%)
Заголовок : AC3 2.0 @ 192 kbps - MVO, ТЕТ
Язык : Ukrainian
Default : Нет
Forced : Нет

Аудио #12
Идентификатор : 13
Формат : AC-3
Формат/Информация : Audio Coding 3
Расширение режима : CM (complete main)
Параметр Endianness формата : Big
Идентификатор кодека : A_AC3
Продолжительность : 2 ч. 4 м.
Вид битрейта : Постоянный
Битрейт : 192 Кбит/сек
Каналы : 2 канала
Расположение каналов : Front: L R
Частота : 48,0 КГц
Битовая глубина : 16 бит
Метод сжатия : С потерями
Размер потока : 171 Мбайт (2%)
Заголовок : AC3 2.0 @ 192 kbps - MVO, R.G. AnimEx & AniFilm & UkrDub
Язык : Ukrainian
Default : Нет
Forced : Нет

Аудио #13
Идентификатор : 14
Формат : AC-3
Формат/Информация : Audio Coding 3
Расширение режима : CM (complete main)
Параметр Endianness формата : Big
Идентификатор кодека : A_AC3
Продолжительность : 2 ч. 4 м.
Вид битрейта : Постоянный
Битрейт : 448 Кбит/сек
Каналы : 6 каналов
Расположение каналов : Front: L C R, Side: L R, LFE
Частота : 48,0 КГц
Битовая глубина : 16 бит
Метод сжатия : С потерями
Размер потока : 399 Мбайт (4%)
Заголовок : AC3 5.1 @ 448 kbps - Dub
Язык : English
Default : Нет
Forced : Нет

Аудио #14
Идентификатор : 15
Формат : AC-3
Формат/Информация : Audio Coding 3
Расширение режима : CM (complete main)
Параметр Endianness формата : Big
Идентификатор кодека : A_AC3
Продолжительность : 2 ч. 4 м.
Вид битрейта : Постоянный
Битрейт : 640 Кбит/сек
Каналы : 6 каналов
Расположение каналов : Front: L C R, Side: L R, LFE
Частота : 48,0 КГц
Битовая глубина : 16 бит
Метод сжатия : С потерями
Размер потока : 570 Мбайт (6%)
Заголовок : AC3 5.1 @ 640 kbps - Original
Язык : Japanese
Default : Нет
Forced : Нет

Текст #1
Идентификатор : 16
Формат : UTF-8
Идентификатор кодека : S_TEXT/UTF8
Идентификатор кодека/Информация : UTF-8 Plain Text
Заголовок : Full, R5
Язык : Russian
Default : Нет
Forced : Нет

Текст #2
Идентификатор : 17
Формат : UTF-8
Идентификатор кодека : S_TEXT/UTF8
Идентификатор кодека/Информация : UTF-8 Plain Text
Заголовок : Full
Язык : Ukrainian
Default : Нет
Forced : Нет

Текст #3
Идентификатор : 18
Формат : UTF-8
Идентификатор кодека : S_TEXT/UTF8
Идентификатор кодека/Информация : UTF-8 Plain Text
Заголовок : Full
Язык : English
Default : Нет
Forced : Нет

Меню
00:00:00.000 : :Chapter 01
00:01:39.098 : :Chapter 02
00:03:16.236 : :Chapter 03
00:07:23.526 : :Chapter 04
00:10:45.394 : :Chapter 05
00:17:03.021 : :Chapter 06
00:22:48.532 : :Chapter 07
00:28:36.047 : :Chapter 08
00:33:28.172 : :Chapter 09
00:38:21.674 : :Chapter 10
00:44:11.815 : :Chapter 11
00:48:26.820 : :Chapter 12
00:54:31.351 : :Chapter 13
01:02:09.016 : :Chapter 14
01:08:11.587 : :Chapter 15
01:14:36.847 : :Chapter 16
01:19:10.579 : :Chapter 17
01:25:39.759 : :Chapter 18
01:31:18.889 : :Chapter 19
01:37:33.805 : :Chapter 20
01:45:18.937 : :Chapter 21
01:50:25.118 : :Chapter 22
01:52:51.097 : :Chapter 23
01:55:14.198 : :Chapter 24
02:00:53.579 : :Chapter 25
02:04:31.255 : :Chapter 26

x264 [info]: frame I:1386 Avg QP:14.73 size:195538
x264 [info]: frame P:41393 Avg QP:16.42 size: 42879
x264 [info]: frame B:136377 Avg QP:19.04 size: 8697

x264 [info]: consecutive B-frames: 3.7% 3.5% 9.7% 18.1% 17.1% 27.3% 11.9% 4.0% 2.2% 0.8% 0.6% 0.7% 0.4%

x264 [info]: ref P L0: 48.8% 5.3% 16.7% 8.4% 6.6% 5.5% 4.9% 3.2% 0.6% 0.0%
x264 [info]: ref B L0: 68.8% 11.9% 7.6% 4.0% 3.3% 2.7% 1.7%
x264 [info]: ref B L1: 91.1% 8.9%



   Похожие торренты   Торрент   Размер 
В этой теме нет новых непрочитанных сообщений. Унесённые призраками / Sen to Chihiro no kamikakushi (2001) BDRip-AVC от HQCLUB

272 | 24

2.91 ГБ

В этой теме нет новых непрочитанных сообщений. Унесённые призраками / Sen to Chihiro no kamikakushi (2001) BDRip 1080p от HQCLUB

77 | 22

21.11 ГБ

В этой теме нет новых непрочитанных сообщений. Унесённые призраками / Spirited Away / Sen to Chihiro no kamikakushi (2001) BDRip от HQCLUB

128 | 16

2.18 ГБ

В этой теме нет новых непрочитанных сообщений. Унесённые призраками / Sen to Chihiro no kamikakushi (2001) BDRip 720p

529 | 72

3.27 ГБ

В этой теме нет новых непрочитанных сообщений. Унесённые призраками / Sen to Chihiro no kamikakushi (2001) BDRip 720p от MediaClub

26 | 8

7.23 ГБ

В этой теме нет новых непрочитанных сообщений. Унесённые призраками / Sen to Chihiro no kamikakushi (2001) BDRip 720p от Leonardo and Scarabey

1075 | 24

3.85 ГБ

В этой теме нет новых непрочитанных сообщений. Унесённые призраками / Sen to Chihiro no kamikakushi (2001) BDRip | D, P, P2, A

27 | 31

6.45 ГБ




Вы не можете начинать темы
Вы не можете отвечать на сообщения
Вы не можете редактировать свои сообщения
Вы не можете удалять свои сообщения
Вы не можете добавлять вложения

Перейти:  
Для Мосгорсуда, Роскомнадзора и рекламодателей: mosgorsud-torrent[собачка]yandex.ru
 Вход
ppkBB3cker v.2 © 2008-2014 @ PPK
[ Time : 0.050s | 15 Queries | GZIP : Off ]

cron