img image001 image001 image001 image001 image001 image001 image001 image001 image001 image001 image001 image001 image001 image001 image001

Planets Sun Sun Sun
Статистика раздачи
Автор: Nickolas3434 | Размер: 1.34 ГБ | Добавлен: 27 июл 2014
Раздают: 6    Качают: 7
Скачать торрент
Скачать торрент
Описание торрента

СообщениеДобавлено: 27 июл 2014 

Информация о фильме
Название: Детективное агентство Хаматора / Хаматора: ответ
Оригинальное название: Reply Hamatora / Re: Hamatora / Re:␣ハマトラ
Страна: Япония
Год выхода: 2014
Жанр: приключения
Режиссер: Киси Сэйдзи / Kishi Seiji / 岸誠二
Автор оригинала: Кодама Юки / Kodama Yuuki / 小玉有起

О фильме: Эсперы, называемые в этом мире Минимумами, по-разному относятся к своему дару. Кто-то чувствует ответственность, а кто-то считает себя полубогом, для которого остальные – пыль под ногами. Справиться с такими непросто, но там, где пасует «королевская рать», на стражу закона становятся детективы-эсперы. Они не любят полицейской муштры и часто работают свободными художниками. Отличный пример – агентство «Хаматора», возглавляемое порывистым Найсом и флегматичным Мурасаки. Правда, весь их офис – одинокий столик в кафе «Нигде», зато бородатый хозяин всегда готов поделиться житейской мудростью, а его помощница Конэко по совместительству работает менеджером агентства.

Несмотря на скромный антураж, без работы молодые детективы обычно не сидят. Во-первых, помогает друг детства, инспектор Арт из полиции Йокогамы: он и сложный случай подкинет, и от властей прикроет, если понадобится. Во-вторых, благодаря бессребренику Найсу, оперативники со сверхспособностями берутся скорее за интересные случаи, нежели за денежные. Оно, конечно, для имиджа полезно, но даже после успешного дела надолго не расслабишься – не на что. И, наконец, все сотрудники «Хаматоры» - крепкие профи и очень любят свою работу, а ведь даже маньякам и серийным убийцам приятнее состязаться с понимающими людьми!
© Hollow, World Art

Студия:

Продолжительность: ТВ (>12 эп.), 25 мин.
Перевод: Любительский (многоголосый закадровый)
Озвучка: loster01 & Emeri & Shoker & GreyMoon
Субтитры: на надписи (полухардсаб)
Перевод на русский: YakuSub Studio (перевод: Nika_Elrik; редактирование: Doflein; оформление: Helge)

Файл
Качество: HDTVRip [Leopard-Raws]
Формат: MP4
Видео: 1280 x 720 (16:9) at 23.976 fps, AVC (x264), High@L3.0, 2341 Kbps avg, 0.106 bit/pixel, 8 bit
Аудио: 48.0 kHz, AAC, 2 ch, 192 kbps avg

Релиз от:

Общее
Полное имя : [LE-Production]_Re_Hamatora_[rus]_[1280x720_x264]_[MVO][LE-Production]_Re_Hamatora_[01]_[rus]_[1280x720_x264]_[MVO].mp4
Формат : MPEG-4
Профиль формата : Base Media
Идентификатор кодека : isom
Размер файла : 442 Мбайт
Продолжительность : 24 м.
Общий поток : 2537 Кбит/сек
Дата кодирования : UTC 2014-07-13 07:19:18
Дата пометки : UTC 2014-07-13 07:19:18
Программа кодирования : Yamb 2.1.0.0 [http://yamb.unite-video.com]

Видео
Идентификатор : 1
Формат : AVC
Формат/Информация : Advanced Video Codec
Профиль формата : High@L3.0
Параметр CABAC формата : Да
Параметр ReFrames формата : 4 кадры
Идентификатор кодека : avc1
Идентификатор кодека/Информация : Advanced Video Coding
Продолжительность : 24 м.
Вид битрейта : Переменный
Битрейт : 2341 Кбит/сек
Максимальный битрейт : 14,3 Мбит/сек
Ширина : 1280 пикс.
Высота : 720 пикс.
Соотношение сторон : 16:9
Режим частоты кадров : Постоянный
Частота кадров : 23,976 кадр/сек
Цветовое пространство : YUV
Подвыборка цветности : 4:2:0
Битовая глубина : 8 бит
Тип развёртки : Прогрессивная
Бит/(Пиксели*Кадры) : 0.106
Размер потока : 408 Мбайт (92%)
Библиотека кодирования : x264 core 130 r2273 b3065e6
Настройки программы : cabac=1 / ref=1 / deblock=1:0:0 / analyse=0x3:0x3 / me=dia / subme=1 / psy=1 / psy_rd=1.00:0.00 / mixed_ref=0 / me_range=16 / chroma_me=1 / trellis=0 / 8x8dct=1 / cqm=0 / deadzone=21,11 / fast_pskip=1 / chroma_qp_offset=0 / threads=12 / lookahead_threads=2 / sliced_threads=0 / nr=0 / decimate=1 / interlaced=0 / bluray_compat=0 / constrained_intra=0 / bframes=3 / b_pyramid=2 / b_adapt=1 / b_bias=0 / direct=1 / weightb=1 / open_gop=0 / weightp=1 / keyint=250 / keyint_min=23 / scenecut=40 / intra_refresh=0 / rc=crf / mbtree=0 / crf=21.0 / qcomp=0.60 / qpmin=0 / qpmax=69 / qpstep=4 / ip_ratio=1.40 / pb_ratio=1.30 / aq=1:1.00
Дата кодирования : UTC 2014-07-09 15:05:45
Дата пометки : UTC 2014-07-13 07:19:25

Аудио
Идентификатор : 2
Формат : AAC
Формат/Информация : Advanced Audio Codec
Профиль формата : LC
Идентификатор кодека : 40
Продолжительность : 24 м.
Вид битрейта : Переменный
Битрейт : 192 Кбит/сек
Максимальный битрейт : 200 Кбит/сек
Канал(ы) : 2 канала(ов)
Расположение каналов : Front: L R
Частота : 48,0 КГц
Метод сжатия : С потерями
Размер потока : 33,5 Мбайт (8%)
Язык : English
Дата кодирования : UTC 2014-07-13 07:19:24
Дата пометки : UTC 2014-07-13 07:19:25

01. Melancholy of Hero
02. Art Returns
03. Madness Flower





   Похожие торренты   Торрент   Размер 
В этой теме нет новых непрочитанных сообщений. Детективное агентство Хаматора / Хаматора: ответ / Re: Hamatora [TV-2] [01-04 из 12] (2014) HDTVRip 720p | LE-Production

6 | 19

1.77 ГБ

В этой теме нет новых непрочитанных сообщений. Детективное агентство Хаматора / Хаматора: ответ / Re: Hamatora [TV-2] [01-02 из 12] (2014) HDTVRip 720p | LE-Production

7 | 34

902.87 МБ

В этой теме нет новых непрочитанных сообщений. Детективное агентство Хаматора / Хаматора: ответ / Re: Hamatora [TV-2] [01 из 12] (2014) HDTVRip 720p | LE-Production

17 | 6

441.97 МБ

В этой теме нет новых непрочитанных сообщений. Детективное агентство Хаматора / Hamatora The Animation [01-05 из 12] (2014) HDTVRip 720p | LE-Production

38 | 16

2.28 ГБ

В этой теме нет новых непрочитанных сообщений. Детективное агентство Хаматора / Hamatora The Animation [01-09 из 12] (2014) HDTVRip 720p | LE-Production

10 | 13

3.99 ГБ

В этой теме нет новых непрочитанных сообщений. Детективное агентство Хаматора / Hamatora The Animation [01-06 из 12] (2014) HDTVRip 720p | LE-Production

15 | 11

2.7 ГБ

В этой теме нет новых непрочитанных сообщений. Детективное агентство Хаматора / Hamatora The Animation [01-12 из 12] (2014) HDTVRip 720p | LE-Production

65 | 40

5.33 ГБ




Вы не можете начинать темы
Вы не можете отвечать на сообщения
Вы не можете редактировать свои сообщения
Вы не можете удалять свои сообщения
Вы не можете добавлять вложения

Перейти:  
Для Мосгорсуда, Роскомнадзора и рекламодателей: mosgorsud-torrent[собачка]yandex.ru
 Вход
ppkBB3cker v.2 © 2008-2014 @ PPK
[ Time : 0.045s | 15 Queries | GZIP : On ]

Торрент трекер RUTOR.IN, Не можете зайти на rutor.org? Какой новый адрес рутор? Какое зеркало рутор? Не работает rutor.org и зеркала? Тогда наш торрент специально для вас. Rutor.in неофициальное зеркало rutor. В случае если у Вас заблокирован rutor или вдруг Вы не можете на него зайти, то Вы без труда сможете скачать бесплатно и без рекламы последние новинки кино, игр, сериалов и прочего у нас, на Rutor.in. Не нужно использовать прокси, чтобы зайти на рутор, достаточно воспользоваться нашим ресурсом. Все новые фильмы, игры, сериалы, книги и музыка за 2013 и 2014 годы через торрент бесплатно. Скачивайте фильмы в хорошем качестве, игры для пк, xbox, playstation без регистрации. У нас вы найдете новые Зарубежные сериалы и Русские сериалы 2013, 2014, 2015 годов. Оставайтесь с нами, качайте любимые фильмы, игры, сериалы, книги и музыку.