img image001 image001 image001 image001 image001 image001 image001 image001 image001 image001 image001 image001 image001 image001 image001

Planets Sun Sun Sun
Статистика раздачи
Автор: Nickolas3434 | Размер: 1.42 ГБ | Добавлен: 31 июл 2014
Раздают: 45    Качают: 14
Скачать торрент
Скачать торрент
Описание торрента

СообщениеДобавлено: 31 июл 2014 

Информация о фильме
Название: Алдноа Зеро
Оригинальное название: Aldnoah.Zero
Год выхода: 2014
Жанр: приключения, фантастика, меха
Режиссер: Аоки Эй
В ролях: Ханаэ Нацуки, Оно Кэнсё, Амамия Сора, Мисава Сатика, Комацу Микако, Мурата Тайси, Какума Ай, Ямая Ёситака, Охара Саяка, Накай Кадзуя, Ториуми Косукэ, Каяно Ай, Симамура Ю, Минасэ Инори, Хаями Сё, Окава Тору

О фильме:
Причина прекращения лунных программ будоражит многие умы, и в этом аниме показана альтернативная версия событий. В 1972 году миссия «Аполлон-17» обнаружила на поверхности нашего спутника космические врата. Через них можно в одно мгновенье переместиться на Марс. Разумеется, ученые считают это подарком свыше, ведь колонизация Красной планеты ранее была несбыточной мечтой, до Луны же добраться намного проще.
Через врата устремляются целые караваны астронавтов, поселенцев, строителей – всех тех, кто должен будет создать там колонию. Будет ли успешной эта колонизация? Инфраструктура Марса развивается очень быстро, и из колонии он превращается в самостоятельную планету со своим правительством, своими законами, своей армией…
И спустя несколько десятилетий земные выходцы, заселившие Красную планету, объявляют войну Земле. Что послужило причиной этому? Никто не знает, но люди пошли войной на людей, построив гигантские машины, спускающиеся с небес и истребляющие всё на поверхности нашей планеты. Причин агрессии завоеватели не называют, но цели очевидны. Армии земных государств объединяют усилия и дают отпор неожиданному агрессору, но дальнейшая судьба обоих миров неизвестна…

Страна: Япония
Студия: A-1 Pictures Inc.
Продолжительность: 00:24:00
Язык: Русский
Перевод: Любительский (двухголосый закадровый) AniDub

Файл
Качество: HDTVRip 720p
Формат: MP4
Кодек: MPEG-4 AVC
Видео: 1280x720, 23.976 fps, ~1600 kbps
Звук: Аудио кодек: AAC
Аудио RUS: 48.0 kHz, AAC, 2 ch, 192 kbps

Озвучивание: JAM, Holly
Перевод: Инна Астафьева
Тайминг и работа со звуком: Deven, SuNRiZ
01. «Марсианская принцесса»
02. «Самый длинный день на Земле»
03. «Юноши на поле брани»
General
Format : MPEG-4
Format profile : Base Media
Codec ID : isom
File size : 306 MiB
Duration : 23mn 59s
Overall bit rate mode : Variable
Overall bit rate : 1 785 Kbps
Encoded date : UTC 2014-07-14 19:00:24
Tagged date : UTC 2014-07-14 19:00:24
Writing application : Yamb 2.1.0.0

Video
ID : 1
Format : AVC
Format/Info : Advanced Video Codec
Format profile : High@L4.1
Format settings, CABAC : Yes
Format settings, ReFrames : 4 frames
Codec ID : avc1
Codec ID/Info : Advanced Video Coding
Duration : 23mn 59s
Bit rate : 1 589 Kbps
Maximum bit rate : 13.9 Mbps
Width : 1 280 pixels
Height : 720 pixels
Display aspect ratio : 16:9
Frame rate mode : Constant
Frame rate : 23.976 fps
Color space : YUV
Chroma subsampling : 4:2:0
Bit depth : 8 bits
Scan type : Progressive
Bits/(Pixel*Frame) : 0.072
Stream size : 273 MiB (89%)
Title : 264
Writing library : x264 core 129 r2245+729M 1a52e03
Encoding settings : cabac=1 / ref=4 / deblock=1:1:-1 / analyse=0x3:0x113 / me=umh / subme=9 / psy=1 / fade_compensate=0.00 / psy_rd=1.00:0.00 / mixed_ref=1 / me_range=24 / chroma_me=1 / trellis=2 / 8x8dct=1 / cqm=0 / deadzone=21,11 / fast_pskip=1 / chroma_qp_offset=-2 / threads=8 / lookahead_threads=1 / sliced_threads=0 / nr=0 / decimate=1 / interlaced=0 / bluray_compat=0 / constrained_intra=0 / fgo=0 / bframes=9 / b_pyramid=2 / b_adapt=2 / b_bias=0 / direct=1 / weightb=1 / open_gop=0 / weightp=2 / keyint=240 / keyint_min=24 / scenecut=40 / intra_refresh=0 / rc=crf / mbtree=0 / crf=18.5 / qcomp=0.72 / qpmin=0 / qpmax=69 / qpstep=4 / ip_ratio=1.40 / pb_ratio=1.30 / aq=1:0.85
Encoded date : UTC 2014-07-05 17:17:29
Tagged date : UTC 2014-07-14 19:00:30
Color primaries : BT.709
Transfer characteristics : BT.709
Matrix coefficients : BT.709

Audio
ID : 2
Format : AAC
Format/Info : Advanced Audio Codec
Format profile : LC
Codec ID : 40
Duration : 23mn 59s
Bit rate mode : Variable
Bit rate : 192 Kbps
Maximum bit rate : 198 Kbps
Channel(s) : 2 channels
Channel positions : Front: L R
Sampling rate : 48.0 KHz
Compression mode : Lossy
Stream size : 33.0 MiB (11%)
Language : Russian
Encoded date : UTC 2014-07-14 19:00:26
Tagged date : UTC 2014-07-14 19:00:30
Когда раздача ведётся путём добавления новых серий, при каждом добавлении создётся новый торрент. Чтобы начать докачку новой серии, пользователям необходимо сделать следующее:
(1) остановить скачивание,
(2) удалить старый торрент у себя из клиента (старые серии удалять не надо),
(3) скачать новый торрент и запустить его у себя в клиенте вместо старого, при этом указать клиенту путь в старую папку, куда и должно происходить скачивание новых серий.
Ваш клиент при этом должен произвести хеширование (проверку) старой папки (если не производит сам - помогите ему сделать это), и будет докачивать только те серии, которых у вас ещё нет. Старые серии при этом не удаляются, а продолжают раздаваться!
Eсли вы уже удалили старые серии, то предотвратить повторную закачку старых серий можно, отжав галочку в соответсвующих местах при запуске нового торрента. По возможности, желательно не удалять старые серии как можно дольше, чтобы релизёр не столько продолжал раздавать старые серии, а смог сконцентрироваться на новых.



   Похожие торренты   Торрент   Размер 
В этой теме нет новых непрочитанных сообщений. Алдноа Зеро / Aldnoah.Zero [01-05 из 25] (2014) HDTVRip 720p | AniDub

85 | 34

1.75 ГБ

В этой теме нет новых непрочитанных сообщений. Алдноа Зеро / Aldnoah.Zero [01-02 из 25] (2014) HDTVRip 720p AniMedia

7 | 3

780.54 МБ

В этой теме нет новых непрочитанных сообщений. Алдноа Зеро / Aldnoah.Zero [01-03 из 25] (2014) HDTVRip 720p AniFilm

10 | 6

841.81 МБ

В этой теме нет новых непрочитанных сообщений. Алдноа Зеро / Aldnoah.Zero [01-03 из 12] (2014) HDTVRip 720p AniMedia

17 | 4

1.1 ГБ

В этой теме нет новых непрочитанных сообщений. Алдноа Зеро / Aldnoah.Zero [01-04 из 12] (2014) HDTVRip 720p от Animedia | L2

14 | 2

1.54 ГБ

В этой теме нет новых непрочитанных сообщений. Гармония ОВА / Harmonie [OVA] (2014) HDTVRip 720p | AniDub

28 | 5

321.99 МБ

В этой теме нет новых непрочитанных сообщений. Эхо Террора / Zankyou no Terror [01-03 из 11] (2014) HDTVRip 720p | AniDub

17 | 13

1.13 ГБ




Вы не можете начинать темы
Вы не можете отвечать на сообщения
Вы не можете редактировать свои сообщения
Вы не можете удалять свои сообщения
Вы не можете добавлять вложения

Перейти:  
Для Мосгорсуда, Роскомнадзора и рекламодателей: mosgorsud-torrent[собачка]yandex.ru
 Вход
ppkBB3cker v.2 © 2008-2014 @ PPK
[ Time : 0.026s | 18 Queries | GZIP : Off ]

Торрент трекер RUTOR.IN, Не можете зайти на rutor.org? Какой новый адрес рутор? Какое зеркало рутор? Не работает rutor.org и зеркала? Тогда наш торрент специально для вас. Rutor.in неофициальное зеркало rutor. В случае если у Вас заблокирован rutor или вдруг Вы не можете на него зайти, то Вы без труда сможете скачать бесплатно и без рекламы последние новинки кино, игр, сериалов и прочего у нас, на Rutor.in. Не нужно использовать прокси, чтобы зайти на рутор, достаточно воспользоваться нашим ресурсом. Все новые фильмы, игры, сериалы, книги и музыка за 2013 и 2014 годы через торрент бесплатно. Скачивайте фильмы в хорошем качестве, игры для пк, xbox, playstation без регистрации. У нас вы найдете новые Зарубежные сериалы и Русские сериалы 2013, 2014, 2015 годов. Оставайтесь с нами, качайте любимые фильмы, игры, сериалы, книги и музыку.
cron