img image001 image001 image001 image001 image001 image001 image001 image001 image001 image001 image001 image001 image001 image001 image001

Planets Sun Sun Sun
Статистика раздачи
Автор: Nickolas3434 | Размер: 1.33 ГБ | Добавлен: 01 авг 2014
Раздают: 141    Качают: 28
Скачать торрент
Скачать торрент
Описание торрента

СообщениеДобавлено: 01 авг 2014 

Страна: Япония
Год выпуска: 1999 г.
Жанр: аниме, фантастика, фэнтези, комедия, приключения
Тип: Movie
Продолжительность: полнометражный фильм, 60 мин.
Режиссер: Хасэгава Кацуми
Описание:
Летниче каникулы прекрасная пора. Однако Земле вновь угрожает опасность и Хибари с подругами снова придётся её спасти.

Доп. информация:

Релиз GSGroup

Эта серия состоит из:
#1 Кибер-команда Акихабары [ТВ] - ТВ (26 эп.), оригинальный сериал, 1998
#2 Akihabara Dennou-gumi: 2011 Nen no Natsuyasumi - п/ф, продолжение, 1999

Качество: DVDRip
Тип релиза: Без хардсаба
Формат видео: MKV
Видео: x264, 662x430, 23.976 fps, 2347 Kbps, 8 bits
Аудио 1: AC-3, 48.0 KHz, 320 Kbps, 2 channels Язык Русский (в составе контейнера) ; Озвучка: (Любительский одноголосый) Persona99
Аудио 2: AC-3, 48.0 KHz, 448 Kbps, 2 channels Язык Японский ; Озвучка 2: оригинал
Субтитры: ASS встроенные в составе контейнера, srt внешние Язык субтитров русский ; Перевод: VZbitten
Код:
General
Unique ID                                : 174779100662608681425842711395566120843 (0x837D3AF8FFABEF2C9305E2D811886F8B)
Complete name                            : Cyberteam in Akihabara Movie (RUS)Cyberteam in Akihabara ~2011 Summer Vacations~ [DVD.H.264.AC3][Persona99].rus.jpn.mkv
Format                                   : Matroska
Format version                           : Version 2
File size                                : 1.33 GiB
Duration                                 : 1h 0mn
Overall bit rate                         : 3 173 Kbps
Encoded date                             : UTC 2014-07-31 15:34:49
Writing application                      : mkvmerge v4.0.0 ('The Stars were mine') built on Jun  6 2010 16:18:42
Writing library                          : libebml v1.0.0 + libmatroska v1.0.0

Video
ID                                       : 1
Format                                   : AVC
Format/Info                              : Advanced Video Codec
Format profile                           : High@L3.2
Format settings, CABAC                   : Yes
Format settings, ReFrames                : 16 frames
Codec ID                                 : V_MPEG4/ISO/AVC
Duration                                 : 1h 0mn
Bit rate                                 : 2 342 Kbps
Width                                    : 662 pixels
Height                                   : 430 pixels
Display aspect ratio                     : 1.85:1
Original display aspect ratio            : 3:2
Frame rate mode                          : Constant
Frame rate                               : 23.976 fps
Color space                              : YUV
Chroma subsampling                       : 4:2:0
Bit depth                                : 8 bits
Scan type                                : Progressive
Bits/(Pixel*Frame)                       : 0.343
Stream size                              : 1 007 MiB (74%)
Writing library                          : x264 core 115 r1937 aa21558
Encoding settings                        : cabac=1 / ref=16 / deblock=1:0:0 / analyse=0x3:0x133 / me=umh / subme=10 / psy=1 / psy_rd=1.00:0.00 / mixed_ref=1 / me_range=24 / chroma_me=1 / trellis=2 / 8x8dct=1 / cqm=0 / deadzone=21,11 / fast_pskip=0 / chroma_qp_offset=-2 / threads=6 / sliced_threads=0 / nr=0 / decimate=1 / interlaced=0 / bluray_compat=0 / constrained_intra=0 / bframes=16 / b_pyramid=2 / b_adapt=2 / b_bias=0 / direct=1 / weightb=1 / open_gop=0 / weightp=2 / keyint=250 / keyint_min=23 / scenecut=40 / intra_refresh=0 / rc=crf / mbtree=0 / crf=16.0 / qcomp=0.80 / qpmin=0 / qpmax=26 / qpstep=4 / ip_ratio=1.40 / pb_ratio=1.30 / aq=1:0.90
Language                                 : Japanese
Default                                  : No
Forced                                   : No

Audio #1
ID                                       : 2
Format                                   : AC-3
Format/Info                              : Audio Coding 3
Mode extension                           : CM (complete main)
Format settings, Endianness              : Big
Codec ID                                 : A_AC3
Duration                                 : 1h 0mn
Bit rate mode                            : Constant
Bit rate                                 : 320 Kbps
Channel(s)                               : 2 channels
Channel positions                        : Front: L R
Sampling rate                            : 48.0 KHz
Bit depth                                : 16 bits
Compression mode                         : Lossy
Stream size                              : 138 MiB (10%)
Title                                    : Persona99
Language                                 : Russian
Default                                  : Yes
Forced                                   : No

Audio #2
ID                                       : 3
Format                                   : AC-3
Format/Info                              : Audio Coding 3
Format profile                           : Dolby Digital
Mode extension                           : CM (complete main)
Format settings, Endianness              : Big
Codec ID                                 : A_AC3
Duration                                 : 1h 0mn
Bit rate mode                            : Constant
Bit rate                                 : 448 Kbps
Channel(s)                               : 2 channels
Channel positions                        : Front: L R
Sampling rate                            : 48.0 KHz
Bit depth                                : 16 bits
Compression mode                         : Lossy
Stream size                              : 193 MiB (14%)
Language                                 : Japanese
Default                                  : No
Forced                                   : No

Text
ID                                       : 4
Format                                   : ASS
Codec ID                                 : S_TEXT/ASS
Codec ID/Info                            : Advanced Sub Station Alpha
Compression mode                         : Lossless
Title                                    : VZbitten
Language                                 : Russian
Default                                  : No
Forced                                   : No


Семпл:



   Похожие торренты   Торрент   Размер 
В этой теме нет новых непрочитанных сообщений. Кибер-команда Акихабары / Cyberteam in Akihabara TV (1998) DVDRip | Рersona99

8 | 43

7.65 ГБ

В этой теме нет новых непрочитанных сообщений. Персона 3 (фильм первый) / Persona 3 the Movie: Spring of Birth [Movie] (2013) BDRip | Persona99

64 | 10

1.3 ГБ

В этой теме нет новых непрочитанных сообщений. Персона 3 (фильм первый) / Persona 3 the Movie: Spring of Birth [Movie] (2013) BDRip 720 | Persona99

137 | 18

1.29 ГБ

В этой теме нет новых непрочитанных сообщений. Персона 3 (фильм первый) / Persona 3 the Movie: Spring of Birth [Movie] (2013) BDRip 1080 | Persona99

52 | 22

3.43 ГБ

В этой теме нет новых непрочитанных сообщений. Синий Экзорцист (фильм) / Gekijouban Ao no Exorcist [Movie] (2012) BDRip | Persona99

69 | 7

1.27 ГБ

В этой теме нет новых непрочитанных сообщений. Синий Экзорцист (фильм) / Gekijouban Ao no Exorcist [Movie] (2012) BDRip 720 | Persona99

0 | 4

1.49 ГБ

В этой теме нет новых непрочитанных сообщений. Тигр и Кролик (фильм) / Tiger & Bunny The Rising [Movie] (2014) BDRip | Persona99

76 | 21

2.08 ГБ




Вы не можете начинать темы
Вы не можете отвечать на сообщения
Вы не можете редактировать свои сообщения
Вы не можете удалять свои сообщения
Вы не можете добавлять вложения

Перейти:  
Для Мосгорсуда, Роскомнадзора и рекламодателей: mosgorsud-torrent[собачка]yandex.ru
 Вход
ppkBB3cker v.2 © 2008-2014 @ PPK
[ Time : 0.035s | 15 Queries | GZIP : On ]

Торрент трекер RUTOR.IN, Не можете зайти на rutor.org? Какой новый адрес рутор? Какое зеркало рутор? Не работает rutor.org и зеркала? Тогда наш торрент специально для вас. Rutor.in неофициальное зеркало rutor. В случае если у Вас заблокирован rutor или вдруг Вы не можете на него зайти, то Вы без труда сможете скачать бесплатно и без рекламы последние новинки кино, игр, сериалов и прочего у нас, на Rutor.in. Не нужно использовать прокси, чтобы зайти на рутор, достаточно воспользоваться нашим ресурсом. Все новые фильмы, игры, сериалы, книги и музыка за 2013 и 2014 годы через торрент бесплатно. Скачивайте фильмы в хорошем качестве, игры для пк, xbox, playstation без регистрации. У нас вы найдете новые Зарубежные сериалы и Русские сериалы 2013, 2014, 2015 годов. Оставайтесь с нами, качайте любимые фильмы, игры, сериалы, книги и музыку.