img image001 image001 image001 image001 image001 image001 image001 image001 image001 image001 image001 image001 image001 image001 image001

Planets Sun Sun Sun
Статистика раздачи
Автор: Nickolas3434 | Размер: 744.96 МБ | Добавлен: 02 авг 2014
Раздают: 132    Качают: 32
Скачать торрент
Скачать торрент
Описание торрента

СообщениеДобавлено: 02 авг 2014 

Информация о фильме
Название: Ловцы забытых голосов
Оригинальное название: Hoshi o ou kodomo / Children Who Chase Lost Voices from Deep Below
Год выхода: 2011
Жанр: аниме, мультфильм, драма, приключения
Режиссер: Макото Синкай / Makoto Shinkai
В ролях: Хилари Хааг, Кори Хартзог, Леральдо Анцальдуа, Дэвид Матранга, Шелли Карлин-Блэк, Шеннон Эмерик, Сэм Роман, Эмили Невез, Бриттни Карбовски, Джордж Мэнли

О фильме:
Фильм рассказывает о девушке по имени Асуна, коротающей дни за прослушиванием таинственной музыки, исходящей из кристалла, доставшегося ей в память об отце. Девушка решает отправиться в путешествие, чтобы встретить друга, которого она давно не видела.

Страна: Япония
Студия: CoMix Wave Inc.
Продолжительность: 02:04:58
Перевод: Профессиональный (полное дублирование) [Reanimedia]

Файл
Кодек: XviD / MP3
Качество: HDRip
Видео: MPEG4, XviD, 624x352 (16:9), 25.000 fps, 714 Kbps (0.130 bit/pixel)
Звук: MP3, 44.1 KHz, 2 ch, 112 Kbps, CBR (Russian)

General
Complete name : /Hoshi.o.ou.kodomo_HDRip.DUB.Rus.745.avi
Format : AVI
Format/Info : Audio Video Interleave
File size : 745 MiB
Duration : 2h 4mn
Overall bit rate : 833 Kbps
Writing application : VirtualDubMod 1.5.4.1 (build 2178/release)
Writing library : VirtualDubMod build 2178/release

Video
ID : 0
Format : MPEG-4 Visual
Format profile : Advanced Simple@L5
Format settings, BVOP : 1
Format settings, QPel : No
Format settings, GMC : No warppoints
Format settings, Matrix : Custom
Codec ID : XVID
Codec ID/Hint : XviD
Duration : 2h 4mn
Bit rate : 714 Kbps
Width : 624 pixels
Height : 352 pixels
Display aspect ratio : 16:9
Frame rate : 25.000 fps
Color space : YUV
Chroma subsampling : 4:2:0
Bit depth : 8 bits
Scan type : Progressive
Compression mode : Lossy
Bits/(Pixel*Frame) : 0.130
Stream size : 638 MiB (86%)
Writing library : XviD 73

Audio
ID : 1
Format : MPEG Audio
Format version : Version 1
Format profile : Layer 3
Mode : Joint stereo
Codec ID : 55
Codec ID/Hint : MP3
Duration : 2h 4mn
Bit rate mode : Constant
Bit rate : 112 Kbps
Channel(s) : 2 channels
Sampling rate : 44.1 KHz
Compression mode : Lossy
Stream size : 100 MiB (13%)
Alignment : Split accross interleaves
Interleave, duration : 80 ms (2.00 video frames)
Interleave, preload duration : 500 ms
Writing library : LAME3.99r
Encoding settings : -m j -V 4 -q 2 -lowpass 15.6 -b 112
Language : Russian



   Похожие торренты   Торрент   Размер 
В этой теме нет новых непрочитанных сообщений. OST - Ловцы забытых голосов / Children Who Chase Lost Voices from Deep Below / Hoshi o Ou Kodomo (2011) MP3

2 | 5

217.3 МБ

В этой теме нет новых непрочитанных сообщений. OST - Ловцы забытых голосов / Children Who Chase Lost Voices from Deep Below / Hoshi o Ou Kodomo (2011) WavPack

0 | 2

418.32 МБ

В этой теме нет новых непрочитанных сообщений. Ловцы забытых голосов / Hoshi o Ou Kodomo / Children Who Chase Lost Voices from Deep Below (2011) BDRip-AVC от MediaClub | D, P, L, L1

285 | 16

2.87 ГБ

В этой теме нет новых непрочитанных сообщений. Disturbed - The Lost Children (2011) FLAC

2 | 2

459.44 МБ

В этой теме нет новых непрочитанных сообщений. Волчьи дети Амэ и Юки / Ookami Kodomo no Ame to Yuki / The Wolf Children Ame and Yuki (2012) BDRip 720p от Мифоград | L2

0 | 4

3.4 ГБ

В этой теме нет новых непрочитанных сообщений. Волчьи дети Амэ и Юки / Ookami Kodomo no Ame to Yuki / The Wolf Children Ame and Yuki (2012) BDRip 720p от Leonardo and Scarabey

89 | 24

2.14 ГБ

В этой теме нет новых непрочитанных сообщений. Рассказы о забытых душах / Lost Tales: Forgotten Souls (2013) PC

48 | 4

384.68 МБ




Вы не можете начинать темы
Вы не можете отвечать на сообщения
Вы не можете редактировать свои сообщения
Вы не можете удалять свои сообщения
Вы не можете добавлять вложения

Перейти:  
Для Мосгорсуда, Роскомнадзора и рекламодателей: mosgorsud-torrent[собачка]yandex.ru
 Вход
ppkBB3cker v.2 © 2008-2014 @ PPK
[ Time : 0.101s | 17 Queries | GZIP : Off ]
CGP output time : 0.080s | 5 Queries | GZIP : Off

Торрент трекер RUTOR.IN, Не можете зайти на rutor.org? Какой новый адрес рутор? Какое зеркало рутор? Не работает rutor.org и зеркала? Тогда наш торрент специально для вас. Rutor.in неофициальное зеркало rutor. В случае если у Вас заблокирован rutor или вдруг Вы не можете на него зайти, то Вы без труда сможете скачать бесплатно и без рекламы последние новинки кино, игр, сериалов и прочего у нас, на Rutor.in. Не нужно использовать прокси, чтобы зайти на рутор, достаточно воспользоваться нашим ресурсом. Все новые фильмы, игры, сериалы, книги и музыка за 2013 и 2014 годы через торрент бесплатно. Скачивайте фильмы в хорошем качестве, игры для пк, xbox, playstation без регистрации. У нас вы найдете новые Зарубежные сериалы и Русские сериалы 2013, 2014, 2015 годов. Оставайтесь с нами, качайте любимые фильмы, игры, сериалы, книги и музыку.