img image001 image001 image001 image001 image001 image001 image001 image001 image001 image001 image001 image001 image001 image001 image001

Planets Sun Sun Sun
Статистика раздачи
Автор: Nickolas3434 | Размер: 1.13 ГБ | Добавлен: 02 авг 2014
Раздают: 17    Качают: 13
Скачать торрент
Скачать торрент
Описание торрента

СообщениеДобавлено: 02 авг 2014 

Информация о фильме
Название: Эхо Террора
Оригинальное название: Zankyou no Terror
Год выхода: 2014
Жанр: триллер, психологический
Режиссер: Ватанабэ Синъитиро
Художник: Канэко Хидэтоси
В ролях: Исикава Кайто, Сайто Сома, Танэдзаки Ацуми, Сакуя Сюнсукэ, Хан Мэгуми

О фильме:
Однажды знойным днем, в разгар лета, в самую обычную школу перевелись двое очень необычных подростков. У уравновешенного Араты Коконоэ и гиперактивного Тодзи Хисами, казалось, не было ничего общего, однако они держались вместе, не лезли в чужие дела и старались не смешиваться с толпой, не забивая себе голову чужими проблемами. Пожалуй, исключение Тодзи сделал только для Мисимы Лизы – своей новой одноклассницы, страдающей от травли со стороны других учеников: почему-то он с самого начала почувствовал с Лизой родство.
Вскоре после этого в Токио прогремел взрыв – двое подростков, скрывающихся за масками и называющих себя «Сфинксом», заявили широкой общественности о своем существовании и устроили теракт. Лиза, оказавшаяся на месте взрыва, спаслась – Тодзи и Арата, лишь притворяющиеся обычными школьниками, поставили её перед выбором: смерть или сотрудничество с ними. Теперь Лизу, выбравшую жизнь, и странных ребят, которых вообще не должно существовать в этом мире, ждет немало мрачных приключений.

Страна: Япония
Студия: MAPPA
Продолжительность: 00:23:00
Язык: Русский
Перевод: Любительский (многоголосый закадровый) AniDub

Файл
Качество: HDTVRip 720p
Формат: MP4
Кодек: MPEG-4 AVC
Видео: 1280x720, 23.976 fps, ~2300 kbps
Звук: Аудио кодек: AAC
Аудио RUS: 48.0 kHz, AAC, 2 ch, 163 kbps

Релиз от:
Озвучивание: Cuba77, Гамлетка Цезаревна, Давид Петросян, Holly, Oriko, BalFor, Trina_D, OSLIKt
Перевод: Timecraft

01. Falling
02. Call & Response
03. Search & Destroy
General
Format : MPEG-4
Format profile : Base Media
Codec ID : isom
File size : 417 MiB
Duration : 22mn 59s
Overall bit rate mode : Variable
Overall bit rate : 2 535 Kbps
Encoded date : UTC 2014-07-13 13:43:08
Tagged date : UTC 2014-07-13 13:43:08
Writing application : Yamb 2.1.0.0

Video
ID : 1
Format : AVC
Format/Info : Advanced Video Codec
Format profile : High@L4.1
Format settings, CABAC : Yes
Format settings, ReFrames : 4 frames
Codec ID : avc1
Codec ID/Info : Advanced Video Coding
Duration : 22mn 59s
Bit rate : 2 368 Kbps
Maximum bit rate : 22.2 Mbps
Width : 1 280 pixels
Height : 720 pixels
Display aspect ratio : 16:9
Frame rate mode : Constant
Frame rate : 23.976 fps
Color space : YUV
Chroma subsampling : 4:2:0
Bit depth : 8 bits
Scan type : Progressive
Bits/(Pixel*Frame) : 0.107
Stream size : 390 MiB (93%)
Writing library : x264 core 129 r2245+729M 1a52e03
Encoding settings : cabac=1 / ref=4 / deblock=1:1:-1 / analyse=0x3:0x113 / me=umh / subme=9 / psy=1 / fade_compensate=0.00 / psy_rd=1.00:0.00 / mixed_ref=1 / me_range=24 / chroma_me=1 / trellis=2 / 8x8dct=1 / cqm=0 / deadzone=21,11 / fast_pskip=1 / chroma_qp_offset=-2 / threads=8 / lookahead_threads=1 / sliced_threads=0 / nr=0 / decimate=1 / interlaced=0 / bluray_compat=0 / constrained_intra=0 / fgo=0 / bframes=9 / b_pyramid=2 / b_adapt=2 / b_bias=0 / direct=1 / weightb=1 / open_gop=0 / weightp=2 / keyint=240 / keyint_min=24 / scenecut=40 / intra_refresh=0 / rc=crf / mbtree=0 / crf=18.5 / qcomp=0.72 / qpmin=0 / qpmax=69 / qpstep=4 / ip_ratio=1.40 / pb_ratio=1.30 / aq=1:0.85
Encoded date : UTC 2014-07-11 04:57:16
Tagged date : UTC 2014-07-13 13:43:25
Color primaries : BT.709
Transfer characteristics : BT.709
Matrix coefficients : BT.709

Audio
ID : 2
Format : AAC
Format/Info : Advanced Audio Codec
Format profile : LC
Codec ID : 40
Duration : 22mn 59s
Bit rate mode : Variable
Bit rate : 163 Kbps
Maximum bit rate : 200 Kbps
Channel(s) : 2 channels
Channel positions : Front: L R
Sampling rate : 48.0 KHz
Compression mode : Lossy
Stream size : 26.8 MiB (6%)
Language : Russian
Encoded date : UTC 2014-07-13 13:43:24
Tagged date : UTC 2014-07-13 13:43:25
Когда раздача ведётся путём добавления новых серий, при каждом добавлении создётся новый торрент. Чтобы начать докачку новой серии, пользователям необходимо сделать следующее:
(1) остановить скачивание,
(2) удалить старый торрент у себя из клиента (старые серии удалять не надо),
(3) скачать новый торрент и запустить его у себя в клиенте вместо старого, при этом указать клиенту путь в старую папку, куда и должно происходить скачивание новых серий.
Ваш клиент при этом должен произвести хеширование (проверку) старой папки (если не производит сам - помогите ему сделать это), и будет докачивать только те серии, которых у вас ещё нет. Старые серии при этом не удаляются, а продолжают раздаваться!
Eсли вы уже удалили старые серии, то предотвратить повторную закачку старых серий можно, отжав галочку в соответсвующих местах при запуске нового торрента. По возможности, желательно не удалять старые серии как можно дольше, чтобы релизёр не столько продолжал раздавать старые серии, а смог сконцентрироваться на новых.



   Похожие торренты   Торрент   Размер 
В этой теме нет новых непрочитанных сообщений. Эхо Террора / Zankyou no Terror [01-04 из 11] (2014) HDTVRip 720p | AniDub

10 | 19

1.52 ГБ

В этой теме нет новых непрочитанных сообщений. Эхо Террора / Zankyou no Terror / Terror in Resonance [TV] [01-02 из 11] (2014) HDTVRip 720p | LE-Production

36 | 7

962.29 МБ

В этой теме нет новых непрочитанных сообщений. Эхо Террора / Zankyou no Terror / Terror in Resonance [TV] [01 из 11] (2014) HDTVRip 720p | LE-Production

21 | 6

508.12 МБ

В этой теме нет новых непрочитанных сообщений. Эхо Террора / Zankyou no Terror / Terror in Resonance [01-06 из 11] (2014) HDTVRip 720p | L1

14 | 9

2.27 ГБ

В этой теме нет новых непрочитанных сообщений. Эхо Террора / Zankyou no Terror / Terror in Resonance [01-05 из 11] (2014) HDTVRip 720p | L1

15 | 26

1.9 ГБ

В этой теме нет новых непрочитанных сообщений. Эхо Террора / Zankyou no Terror / Terror in Resonance [01-09 из 11] (2014) HDTVRip 720p | L1

11 | 11

3.46 ГБ

В этой теме нет новых непрочитанных сообщений. Эхо Террора / Zankyou no Terror / Terror in Resonance [01-11 из 11] (2014) HDTVRip 720p | L1

389 | 53

4.19 ГБ




Вы не можете начинать темы
Вы не можете отвечать на сообщения
Вы не можете редактировать свои сообщения
Вы не можете удалять свои сообщения
Вы не можете добавлять вложения

Перейти:  
Для Мосгорсуда, Роскомнадзора и рекламодателей: mosgorsud-torrent[собачка]yandex.ru
 Вход
ppkBB3cker v.2 © 2008-2014 @ PPK
[ Time : 0.082s | 17 Queries | GZIP : Off ]
CGP output time : 0.023s | 5 Queries | GZIP : Off

Торрент трекер RUTOR.IN, Не можете зайти на rutor.org? Какой новый адрес рутор? Какое зеркало рутор? Не работает rutor.org и зеркала? Тогда наш торрент специально для вас. Rutor.in неофициальное зеркало rutor. В случае если у Вас заблокирован rutor или вдруг Вы не можете на него зайти, то Вы без труда сможете скачать бесплатно и без рекламы последние новинки кино, игр, сериалов и прочего у нас, на Rutor.in. Не нужно использовать прокси, чтобы зайти на рутор, достаточно воспользоваться нашим ресурсом. Все новые фильмы, игры, сериалы, книги и музыка за 2013 и 2014 годы через торрент бесплатно. Скачивайте фильмы в хорошем качестве, игры для пк, xbox, playstation без регистрации. У нас вы найдете новые Зарубежные сериалы и Русские сериалы 2013, 2014, 2015 годов. Оставайтесь с нами, качайте любимые фильмы, игры, сериалы, книги и музыку.